<?xml version="1.0" standalone="no"?>
<!DOCTYPE svg PUBLIC "-//W3C//DTD SVG 1.1//EN" "http://www.w3.org/Graphics/SVG/1.1/DTD/svg11.dtd" >
<svg xmlns="http://www.w3.org/2000/svg">
<metadata>
<json>
{
	"fontFamily": "teammates",
	"majorVersion": 1,
	"minorVersion": 0,
	"version": "Version 1.0",
	"fontId": "teammates",
	"psName": "teammates",
	"subFamily": "Regular",
	"fullName": "teammates",
	"description": "Font generated by IcoMoon."
}
</json>
</metadata>
<defs>
<font id="teammates" horiz-adv-x="1024">
<font-face units-per-em="1024" ascent="960" descent="-64" />
<missing-glyph horiz-adv-x="1024" />
<glyph unicode="&#x20;" d="" horiz-adv-x="512" />
<glyph unicode="&#xe600;" d="M6 73.8l595.5-125v1024l-595.5-115.5v-783.5zM172 457.3q0 81 38 132 38.5 50.5 100.5 50.5 59 0 95.5-48.5 36-47 36-127 0-81.5-37.5-131-38-50-98.5-50-58.5 0-96.5 48.5-37.5 48-37.5 125.5zM237.5 461.3q0-51 19.5-81t50-30q32.5 0 51 29 19 29.5 19 80.5 0 52.5-18.5 83.5-17.5 29.5-50 29.5-32 0-51.5-30.5t-19.5-81zM639.5 208.3h324.5q23.5 0 38.75 14.25t15.25 42.75v368q-294-195.5-295-196.5-10.5-7-20 0l-63.5 44v-272.5zM639.5 555.3l70-44q3.5-1 7.5 0l301 203q0 16.5-12.25 29t-22.75 12.5h-343.5v-200.5z" />
<glyph unicode="&#xe601;" d="M0 796.3q0-53 37.25-90.25t90.25-37.25 90.25 37.25 37.25 90.25-37.25 90.25-90.25 37.25-90.25-37.25-37.25-90.25zM382.5 460.8q0-53 37.25-90.25t90.25-37.25 90.25 37.25 37.25 90.25-37.25 90.25-90.25 37.25-90.25-37.25-37.25-90.25zM382.5 796.3q0-53 37.25-90.25t90.25-37.25 90.25 37.25 37.25 90.25-37.25 90.25-90.25 37.25-90.25-37.25-37.25-90.25zM769 125.3q0-53 37.25-90.25t90.25-37.25 90.25 37.25 37.25 90.25-37.25 90.25-90.25 37.25-90.25-37.25-37.25-90.25zM769 460.8q0-53 37.25-90.25t90.25-37.25 90.25 37.25 37.25 90.25-37.25 90.25-90.25 37.25-90.25-37.25-37.25-90.25zM769 796.3q0-53 37.25-90.25t90.25-37.25 90.25 37.25 37.25 90.25-37.25 90.25-90.25 37.25-90.25-37.25-37.25-90.25z" />
<glyph unicode="&#xe602;" d="M0 417.3q0-70 34.75-129.75t94.25-94.5 129.5-34.75q58 0 109.5 24.5t88 67.5l58.5-82.5 51 85.5q36.5-44.5 88.5-69.75t111.5-25.25q70 0 129.5 34.75t94.25 94.5 34.75 129.75q0 92-58.5 163.5 20.5 59.5 45.5 84.5h-170q-4 0-8.5 1.5-4.5 7-12.75 15.75t-33 24.25-58 27-91.75 20.5-129.5 9q-56.5 0-105-5.5t-81-14-58.5-19-40.75-21-24.5-19-12.75-14l-3.5-5.5h-177q26-24 47.5-92.5-52-69.5-52-155.5zM51 416.8q0 86 60.75 147t146.75 61 147-61 61-147-61-146.75-147-60.75-146.75 60.75-60.75 146.75zM134.5 416.8q0-51 36.5-87.5t87.5-36.5q51.5 0 88 36.25t36.5 87.75-36.5 88-88 36.5q-51 0-87.5-36.5t-36.5-88zM172.5 416.8q0 36 25 61 25.5 25.5 61 25.5t61-25.5 25.5-61-25.5-60.75-61-25.25-61 25.5q-25 25-25 60.5zM216.5 416.8q0-17 12.25-29.5t29.75-12.5 29.75 12.5 12.25 29.5q0 17.5-12.5 30t-29.5 12.5-29.5-12.5-12.5-30zM262 661.3q2.5 3 8.25 8.25t26.75 18.25 46.5 22.75 69.25 18 93.25 8.25h17.5q49.5 0 92.75-7.75t69.75-19 45.75-22.25 27.25-19l8-7.5q-4 0.5-11 1.25t-27.75-0.75-41-6.5-46.75-19-48.5-35-43.25-57.75-34.25-84.25q-13 47.5-33.75 84.25t-44 57.75-48 35.25-47.25 18.75-40.5 6.5-28.5 1zM557.5 416.8q0 86 61 147t147 61 146.75-61 60.75-147-60.75-146.75-146.75-60.75-147 60.75-61 146.75zM641 416.8q0-51 36.5-87.5t88-36.5 87.75 36.25 36.25 87.75-36.25 88-87.75 36.5-88-36.5-36.5-88zM679 416.8q0 35.5 25.5 61t61 25.5 60.75-25.5 25.25-61-25.25-60.75-60.75-25.25-61 25.5-25.5 60.5zM723.5 416.8q0-17 12.25-29.5t29.75-12.5 29.75 12.5 12.25 29.5q0 17.5-12.5 30t-29.5 12.5-29.5-12.5-12.5-30z" />
<glyph unicode="&#xe603;" d="M15.5-33.2h172l99.5 472.5q31 139 138 276.5 108 139 210.5 139 85 0 85-109 0-58.5-27.5-172.5l-42-191q-35-164-35-249.5 0-85 45-134.5 46-49.5 122.5-49.5 105 0 225 104.5l-33 54q-64.5-42-118.5-42-64.5 0-64.5 88 0 84 24.5 194l47.5 218q33.5 146 33.5 203 0 204.5-197.5 204.5-186.5 0-336-249h-18.5l49.5 232.5h-341.5l-16-77h14.5q129 0 129-87.5 0-32.5-11-83z" />
<glyph unicode="&#xe604;" d="M0 259.3q0-40.5 28.75-69.25t69.25-28.75q36 0 63 23.25t33 58.25h143.5q6.5-67 56.5-113t118-46 118 46 56.5 113h143.5q6-35 33-58t63-23q40.5 0 69.25 28.5t28.75 69-28.75 69.25-69.25 28.75q-36 0-63-23.25t-33-58.25h-143.5q-5 55-41 97l122 122q28.5-20.5 64.25-17.75t61.25 28.25q28.5 28.5 28.5 69.25t-28.5 69.25-68.75 28.5-69.25-28.5q-25.5-25.5-28.25-61.25t17.75-64.25l-122.5-122.5q-40.5 32.5-93.5 38v209.5q35 6 58.25 33.25t23.25 63.25q0 40.5-28.75 69.25t-69.25 28.75-69.25-28.75-28.75-69.25q0-36 23.25-63.25t58.25-33.25v-209.5q-53-5.5-93.5-38l-122.5 122.5q20.5 28.5 17.75 64.25t-28.25 61.25q-28.5 28.5-69 28.5t-69-28.5-28.5-69.25 28.5-69.25q25.5-25.5 61.25-28.25t64.25 17.75l122-122q-36-42-41-97h-143.5q-6 35-33 58t-63 23q-40.5 0-69.25-28.5t-28.75-69z" />
<glyph unicode="&#xe605;" d="M39 880.3q-3-10 10-56.5 8-28.5 22.5-67t18.5-50.5q3-9 9.5-30.25t9.5-30.25q1-3 3.5-5.75t3-3.75q10-19.5 20.5-58.75t14-49.25q1-3 3.5-5.5t3-3.5q1.5-3 2.75-9t2.25-8q18-50 35-103t37.25-121.5 33.75-110.5q4-13 12.25-41t13.75-46.25 14.25-43 16.25-40.25 17.5-28.5 20-17q5.5-2 13-2.5t17.5 1 19 3.25 23 6 23.75 7.5 26.5 8.75 26.75 8.5l318 100q2 0.5 42.25 11.5t64 20.25 27.25 17.75q0.5 0.5 3.25 1.25t3.25 1.25 0 2l-1 1q0.5 1 3.5 1.5t3.5 1q8 9.5 9.5 29 0 3.5 0.75 10.25t0.75 8.75q-0.5 10.5-5.5 25.75t-6.5 22.75l2.5 4v0.5q-0.5 5-3.25 11.5t-3.25 8.5q-1 4.5-2.25 14.25t-2.75 14.25l-2.25 6.75t-2.75 7.5-2.75 6.75-3.25 7-3.75 6-4.75 5.75-5.5 4.25-6.75 3-8.25 1h-8.75t-10.25-1.25-10.25-2.25-11.75-3.25-11.75-3.75-12.5-4-12.25-4q-267.5-84.5-277.5-87.5-2-0.5-6-2.25t-6.5-2.5-5.75-0.75-6.25 1.5l-120.5 382.5q-8.5 27.5-26.75 90.5t-28.75 96.5q-4 13-12.25 41.5t-13.25 44.25-12.75 36-16.25 32-18 16.75q-7.5 4-22.5 4-34-0.5-91-19t-93.5-35q-5.5-2.5-12.75-5.25t-12.25-4.75-8-4.5q-5.5-4-11-11.75t-7-12.25z" />
<glyph unicode="&#xe606;" d="M10 476.3q-1-12 7-26.5 70.5-85.5 213-144-46.5-159 10.5-261.5 35.5-63.5 99.5-86.5 57-20.5 104 2 47.5 23 54 78 1.5 9.5 1 20l0.5 193v0.5q2-0.5 27.5-6.5l0.5-187q-2-63 45-92.5 42.5-26.5 100-11.5 64 16.5 104 75 61.5 90 31 234.5-4.5 21-11 42.5 74 30 126.75 68t83.75 76q14 21.5 1.75 36.25t-34.75-0.75q-1-0.5-3-2.75t-4.5-3.5-7-2.25v396.5q0 42-24.75 70.75t-62.25 28.75h-717.5q-38.5 0-67.75-29.25t-29.25-70.25v-396.5q0 1.5-1.5 2.75t-4.5 3-4 2.75q-14.5 10-25.75 6.5t-12.25-15.5zM119.5 443.8v384.5q0 53 16.5 73.25t63 20.25h635q43.5 0 58.75-21t15.25-72.5v-381.5q-24-13.5-49.75-24t-46.25-17-46.5-11-41.5-6.5-40.5-2.5-34.25-0.5-32.5 1-26.25 1q-33.5 2-48.25-10.75t-16.75-38.25q-12 8.5-34 28.5-3.5 3.5-5.5 5-16.5 17.5-52.5 15.5-1.5 0-26-1t-33.25-1-34.75 0.5-41.25 2.5-41.25 6-46 10.25-44.5 16.25-47 23zM254.5 548.8q0-46.5 35.25-79.5t85.25-33 85 33 35 79.5-35 79.5-85 33-85.25-33-35.25-79.5zM538.5 550.3q0-47 35.5-80.25t85.5-33.25 85.5 33.25 35.5 80.25-35.5 80-85.5 33-85.5-33-35.5-80z" />
<glyph unicode="&#xe607;" d="M9 738.050q0-5.75 6-10.25 2-1.5 15-8l446-208q36-17 71.5 0l447 208q10 5 14.5 8.5 12 9.5 0 19.5-4.5 3.5-14.5 8.5l-445 207.5q-18.5 9-37.5 9-19.5 0-37-8.5l-446-208q-11.5-5.5-14-8-6-4.5-6-10.25zM10 183.3q0-2.5 0.5-4.25t1.75-3.5 2.25-2.75 3.25-2.25 3.5-1.75 4-1.5 3.25-1.5l447.5-208.5q36-17 71-0.5l450 210q7 3 10 5 7.5 5 7.5 11.5t-7.5 12q-2.5 2-8.5 5l-79.5 37q-16.5 8-35 8-17 0-35-8.5l-302-140.5q-36-17-70-0.5l-300.5 140.5q-36 17-73 0.5l-74.5-35.5q-1-0.5-5-2t-5.5-2.5-4-3-3.5-4.5-1-6zM10 459.8q0-2.5 0.5-4.25t1.75-3.5 2.25-2.75 3.25-2.25 3.5-1.75 4-1.5 3.25-1.5l447.5-208.5q36.5-17.5 71-1l450 210q5 2 10 5.5 7.5 5.5 7.5 11.75t-7.5 11.75q-2.5 2-8.5 5l-79.5 37q-15.5 7.5-35 7.5-18.5 0-35-8l-302-140.5q-36-17-70-0.5l-300.5 140.5q-35.5 17-73 0l-74.5-35q-1-0.5-5-2t-5.5-2.5-4-3-3.5-4.5-1-6z" />
<glyph unicode="&#xe608;" d="M0 52.8l211.5 29q66-56 147.75-87t171.25-31q100.5 0 191.75 39.25t157.5 106 105.25 158.75 39 193-39 193-105.25 158.75-157.5 106-191.75 39.25-191.75-39.25-157.25-106-105-158.75-39-193q0-108 44.5-206.5zM338 214.8v492h186.5q128.5 0 201.25-66.75t72.75-176.25v-1.5q0-110-73.75-178.75t-203.25-68.75h-183.5zM471 337.8h55.5q62.5 0 100.75 31.75t38.25 90.25v1.5q0 58-38.25 90.25t-100.75 32.25h-55.5v-246z" />
<glyph unicode="&#xe609;" d="M2 695.8q7-27.5 19.25-54.75t32.75-65 27.5-51.75q49.5-87 96.25-152.75t103.75-117.75q54-48.5 128-68.75t151.5-13.25q21.5 2.5 31.5 17.25t10.25 32.5 3 39.75 11.25 33.5q9 8 18.75 9.25t17.25-1.25 17-11 14.5-14 14-17.25 11.5-14.75q65-74.5 122-80.5 33.5 9.5 60 6.5t61-2.25 58.5 12.75q9 9 11 19.75t-3.25 22.25-11 20.25-15.75 21-13.5 17.25q-19 24-59.5 62.75t-54.5 54.25q-7.5 10.5-9 21.5t4.5 24 9.75 19.25 16 21.75 13.75 17q10 14 35 45t38.5 49.25 28.5 47.25 21 56.5q-3 17.5-17.5 25t-30.5 6.5-37.5-2.75-32-0.25q-11-1-42.5 2.5t-52.25-1-33.25-23.5q-28-64.5-52.75-111.25t-57.25-87.25q-5-8-11.75-15.5t-15.5-14-17.25-5.75-14.5 10.75q-11 17-13 42t0.5 44q-0.5 18 3.5 50.5t3.5 59.25-10.5 48.75q-6 8.5-14 13.75t-21 7.75-18.5 3.5-23.5 1.5-19 0.5q-17.5-0.5-38-0.75t-38.5-0.5-37.25-5.5-34.25-15.75q-12-9.5-5.5-17.75t19.5-12.75 24.25-15 8.75-24.5q13.5-87.5-3-170-8.5-33-36.5-18-20 11-33.5 34-2 4-3.5 7.5-45.5 62-105 189.5-11 18.5-30 23t-48.5 1.5-39.5-2q-6.5-0.5-21.75 0.5t-27.5 1-24.25-2.25-17.75-10.5-2.75-22.25z" />
<glyph unicode="&#xe60a;" d="M0 259.3q0-62.5 25.5-120.5t66.5-99.25 95.25-66 110.25-24.75h411q62 0 120 25t100.75 67 68.75 100.25 26 121.25v246q0 37-15.75 56.25t-55.25 19.25h-45q-31.5 0-50 17.5t-18.5 43v29q0 70.5-45.75 141t-115.5 114.5-137.25 44h-216.5q-67 0-127.25-25.25t-103.5-68.75-68.5-103.75-25.25-127.25v-388.5zM265 271.3q0 24 17.5 40.25t42 16.25h369q25 0 42.25-16t17.25-40.5q0-24-17.5-40.25t-42-16.25h-369q-25 0-42.25 16t-17.25 40.5zM265 645.3q0 24.5 17.75 43t41.75 18.5h185.5q24.5 0 42.25-18.25t17.75-43.25q0-24.5-18-43t-42-18.5h-185.5q-24.5 0-42 18.25t-17.5 43.25z" />
<glyph unicode="&#xe60b;" d="M16 409.8q15-26 40.5-41-3-18-3-37 0.5-61.5 35.75-117t100.75-98q64-41.5 146-63.75t171.5-22.25h6q123.5 0 229 42 105.5 41 166 112 60 70 60 152v1.5q0 14-3.5 34 27 14.5 43 41.5 16 26 16 56.5v2q-0.5 46.5-33.75 79t-79.75 32.5h-1q-45.5 0-78-31.5-60.5 39-137.25 61.25t-160.75 24.25l61.5 200.5 171.5-38.5v-2q0.5-38 27.5-64.5t65-26.5h1q38.5 0 65.5 27 26.5 27 26.5 64v1.5q-0.5 38-27.75 64.75t-65.25 26.75h-3q-36.5-1-63-27.5-14-14.5-20.5-32.5l-185 42q-6 1.5-11.25-1.5t-7.25-9l-68.5-223.5q-184.5-4-311-87-34.5 32-76 32h-1q-46.5 0-79.5-35-33-34.5-33-80.5 0-31.5 16-58.5zM299.5 423.3q0 28.5 19 47.5 20.5 20.5 46.5 20.5h0.5q27 0 46.5-19.5 20-20 20-48 0-27-19-46-19.5-20-47-19h-0.5q-27 0-46.25 18.75t-19.75 45.75zM346 201.050q0 6.75 4.5 11.25 4.5 5 11.25 5.25t11.25-4.25q39.5-39 141-39l0.5-1 0.5-0.5q100 0.5 140.5 42 5 5 11 5 7.5 0 11.5-4 4.5-4.5 4.5-11t-4.5-11q-50-50.5-163-50.5l-0.5-1.5-0.5-0.5q-1 0-2-0.25t-2-0.25q-110 0-159.5 49-4.5 4.5-4.5 11.25zM604.5 425.8q-0.5 27 18.5 46 19 20 47 19.5h0.5q27 0 46.25-19.25t19.75-46.25q0-28-19-47-20.5-20.5-46.5-20h-0.5q-27.5 0-46.5 19-20 20-19.5 48z" />
<glyph unicode="&#xe60c;" d="M0-51.2h512v512h-512v-512zM512 460.8h512v512h-512v-512z" />
<glyph unicode="&#xe60d;" d="M6.5 226.3h485v293q7 0 20 0.25t23.75 0.25 19.25-0.5q89-5 151.5-32.5 101-44 126-143.5 3-14.5 3.5-14.5h-170v131q0 11-10.5 13-5 1-31.5 6.25t-41.5 7.25q-10 1.5-28.5 2t-21 1v-263h486q1 9 3 22.25t2.5 21.25v9q0 77-57.5 147-63.5 76-177 122-123.5 50-273 51.5h-25v96q-59-6.5-133-13v-12.5q0-50 0.5-75 0-10.5-10.5-12.5-108-22.5-192-73-76.5-46.5-116.5-106.5-40-60.5-40-124 0-26 6.5-52.5zM189 328.8q3.5 55 56.25 109.75t113.25 62.25v-172h-169.5z" />
<glyph unicode="&#xe60e;" d="M85-51.2h376v218l-102.5 71.5 16 24.5 86.5-60.5v176.5h102v-114.5l85.5 45.5 14.5-27-100-53.5v-78.5l161 80.5 12.5-26-173.5-87.5v-169h376l-427 1024z" />
<glyph unicode="&#xe60f;" d="M39 4.3q0-43 30-53.5 6-2 12.5-2 16 0 35.5 11l623.5 345.5 212.5 114q32 17.5 32 43t-32 43l-213.5 118-622.5 342q-14 7.5-33.5 7.5h-13.5q-31-17-31-55.5v-913z" />
<glyph unicode="&#xe610;" d="M143 181.3q0-17.5 19.5-17.5 45.5 0 54.5-0.5 68.5-3.5 82-5.5 81-10.5 156.5-66 48-36 73-53 84.5-57 154.5-79 34.5-11 61.5-11 7.5 0 14.5 1 56.5 7 90.5 62 31 51 32 114.5 0 5-2.5 50-1.5-1-3.25-2t-2.75-1.75-2-1.25q-23-16.5-51-24-25-6.5-54-6.5-31 0-67 7.5-40.5 9-96.5 40-26.5 14.5-94.5 55.5-65 39.5-122 46.5-10 1-28 2-1 14 1 21.25t10.5 16.75l442.5 510.5q6.5 8 8 18 4 25 10 80 2 17-15 16.5-1.5 0-3-0.25t-3.25-0.75-2.75-0.5q-109.5-21.5-207.5-23h-13.5q-83.5 0-143.5 11.5-44 8.5-74 25.5-9 5-15.5 5-10 0-17.5-11-26.5-39-40-63.5-16-28.5-18.5-66.5-0.5-4-0.5-7.5 0-16.5 6-26 7-12 26.5-22 24-12 59-16.5 21-2.5 44-2.5 42.5 0 93 8l47 8q-1-1-3.25-3.75t-3.25-3.75l-390.5-461q-9.5-11.5-10.5-25-1-19.5-1-51 0-21 0.5-47.5z" />
<glyph unicode="&#xe611;" d="M0 762.3l4.5-2q21.5-8.5 48-33.5t43.5-54q49-96.5 126-283.5t115.5-268h45l149 289 122.5-289 43.5 0.5 258 593.5q16.5 29 42 41 15 6 26.5 8v34l-207.5 1.5 1.5-35q55-12.5 69-45l-187-431.5q-51.5 109-101.5 228 4.5 9.5 19.25 42t21.75 47.25 19.5 40.25 24 45.75 24 39.25q23 31 80 35.5v33.5l-219.5-1 0.5-33q11.5-0.5 18.75-1t18.25-3 16.75-6.75 9.25-12.25 1-19.5q-9-22.5-20.5-46.75t-26.25-54.5-22.25-46.25l-69.5 154.5q-1 9.5 2.5 16.25t11.25 10.5 14.75 5.5 17 3.25l-1 33-245.5 1-0.5-34.5q22.5-1 33.75-1.75t28.5-7 24.25-17.75q26.5-48.5 65.75-139.25t55.75-124.25l-111.5-208-189.5 437.5q-2.5 7.5-2.5 14-0.5 16.5 14.5 27 20 15 52 19v35.5l-260-0.5-3-0.5v-37z" />
<glyph unicode="&#xe612;" d="M75 427.8q0-123.5 48.5-236.5t136-194q58.5-48.5 117-48.5 19 0 62 13 72 29 96 29 32 0 76-21 50-19.5 89.5-19.5 58 0 95 26 45.5 33 90.25 101.5t63.75 133q-63.5 17-102.75 81t-39.25 138.5q0 37.5 14.25 78.5t42.5 74.75 62.75 44.25q-19 36-47.5 64.5-62 55.5-147 55.5-29.5 0-125-37-34.5-14.5-74-14.5-42 0-83 25-52 26.5-114.5 26.5-57 0-106.5-27t-82.75-71.75-52.25-102.5-19-118.75zM507 741.3q85 0 148.5 69.5 59 68.5 59 162-88-14-147-79-60.5-75.5-60.5-152.5z" />
<glyph unicode="&#xe613;" d="M0 22.3q4 3 7.5 6.5l225 225.5q6.5 6.5 6.5 14.5 0 30-0.25 84.75t-0.5 99.5 0.75 84.75q1 46.5 7.5 82.5 15 82.5 90 105.5 23 6.5 32 7 46 1.5 141.5 3.5 2 0 2-1v-167q5-9.5 10-13 7-5 15 2.5l407.5 407.5q0.5 0.5 1.75 2.75t2.5 3.5 2.75 1.25h-585q-55.5 0-101-9.5-177-36.5-236-202-29-81.5-29-191 0-89.5-0.25-268.75t-0.25-268.75v-10.5zM73.5-49.2l1-2h583q54.5 0 103 10 170.5 36 231 194.5 32 84 32 195.5 0 90 0.25 270t0.25 270v8.5q0 0.5-0.75 0.75t-1.75 0.75-1.5 1q-0.5-1-1.5-2.75t-1.75-3.25-1.75-2.5l-224-224q-6-6-6-14.5l0.5-137v-76.5q0-61-0.5-61-0.5-39-8.5-79.5-15.5-77.5-82-100.5-25-9-47.5-10.5-43.5-2-130.5-3-4.5 0-4.5 1v163q0 13-9.5 17.5-9 4-18.5-5.5-0.5-0.5-1.75-1.5t-1.75-1.5l-298-298.5z" />
<glyph unicode="&#xe614;" d="M183.5 460.8q0-104 40.5-198.75t109-163.5 163.25-109.25 198.75-40.5q41 0 73 5.5v70.5q-31-6-73-6-90 0-171.75 35t-141.25 94.25-94.5 141-35 171.75 35 171.75 94.5 141 141.25 94.25 171.75 35q42 0 73-6v70.5q-32 5.5-73 5.5-104 0-198.75-40.5t-163.25-109.25-109-163.5-40.5-198.75zM334 460.8q0-98 48.5-181.25t131.5-131.75 181-48.5q42 0 73 7.5v104.5q-32-11-73-11-70.5 0-130.5 35t-94.75 95-34.75 130.5 34.75 130.5 94.75 95 130.5 35q41 0 73-11v104.5q-30.5 7.5-73 7.5h-4.5q-72.5-1-138.5-30t-113.75-77.5-76-114.75-28.25-139.25zM552 462.3q0-74.5 50.5-120.5t125.5-46q71.5 0 112.5 42.5l-64.5 67.5q-20.5-24-48-24-36.5 0-57.5 22.25t-21 58.25 21 58 57.5 22q30 0 48-24l64.5 67.5q-41 42.5-112.5 42.5-75 0-125.5-45.75t-50.5-120.25z" />
<glyph unicode="&#xe615;" d="M0 415.8h180v-450h179.5v450h270v-450h180v450h179.5v180h-179.5v90q0 38 19.5 65t42.5 27h152.5v178h-152.5q-65.5 0-121.25-36.25t-88.25-98.25-32.5-135.5v-90h-270v90q0 38 19.5 65t43 27h152.5v178h-152.5q-65.5 0-121.25-36.25t-88.25-98.25-32.5-135.5v-90h-180v-180z" />
<glyph unicode="&#xe616;" d="M243 317.8q0-30 21.25-51.25t51.25-21.25q19.5 0 36 9.5l125-90.5v-215.5h71v71l122.5 88.5q17.5-11 38.5-11 30 0 51.25 21.25t21.25 51.25-21.25 51.25-51.25 21.25-51.25-21.25-21.25-51.25q0-6 0.5-9l-89-64.5v215.5l122.5 88.5q17.5-11 38.5-11 30 0 51.25 21.25t21.25 51.25-21.25 51.25-51.25 21.25-51.25-21.25-21.25-51.25q0-6 0.5-9l-89-64.5v201.5l123.5 89.5q18-10.5 37.5-10.5 30 0 51.25 21.25t21.25 51.25-21.25 51.25-51.25 21.25-51.25-21.25-21.25-51.25q0-4 1-10l-89.5-65v306.5h-71v-161.5l-90 65q1.5 6.5 1.5 13.5 0 30-21.25 51.25t-51.25 21.25-51.25-21.25-21.25-51.25 21.25-51.25 51.25-21.25q19 0 35 8.5l126-91v-202l-89.5 65q1 8 1 12 0 30-21.25 51.5t-51.25 21.5-51.25-21.5-21.25-51.5 21.25-51.25 51.25-21.25q19 0 35.5 9.5l125.5-90.5v-215.5l-89.5 65q1 8 1 12 0 30-21.25 51.25t-51.25 21.25-51.25-21.25-21.25-51.25z" />
<glyph unicode="&#xe617;" d="M0 488.8q0-62 16.5-121t46.75-109 73.25-92 94.25-71.5 111.75-45.75 124-16.25q108.5 0 205.5 47l352-103-115 366q25 72 25 146 0 92.5-37 176.75t-99.25 145.25-148.75 97-181.5 36-181.5-36-149-97-99.75-145.5-37.25-177zM150 488.8q0 84 42.5 155t115.75 112.5 159.25 41.5 159-41.5 115.25-112.5 42.25-155q0-56-21-109l59-165 0.5-0.5 5-14.5 20.5-54-74.5 19-160 50.5q-69.5-35.5-147-35.5-86 0-159 41.5t-115.25 112.5-42.25 155z" />
<glyph unicode="&#xe618;" d="M51 358.3q0-83 32.5-159t87.5-130.75 130.75-87.25 159.25-32.5h102q83 0 159 30.5t131 82 87.5 122.5 32.5 149q0 104-41.25 192.5t-112 140-154.25 51.5h-204.5q-42.5 0-72.5-30t-30-72.5 30-72.5 72.5-30h204.5q37.5 0 70-53t32.5-126q0-74-60-126.5t-145-52.5h-102q-85 0-145 60t-60 144.5v512q0 42.5-30 72.5t-72.5 30-72.5-30-30-72.5v-512z" />
<glyph unicode="&#xe619;" d="M69.5 145.8q5-11 21-12.5 14-0.5 25.25 5.25t18.25 16.25 10.75 19 7 19.75 3.75 12.25q8.5 23 40.75 82.25t38.25 63.25q3 2 26 23.25t37 32.25q5 4 16.75 13.75t19.25 15.75 17.25 11.25 16.25 5.25q18.5 0 40.5-18.25t23.5-33.75q0.5-3 0.5-6 0-23.5-17-59-3-11-2.5-14t4.5-15.5q0-0.5 4.5-15.25t8.75-28 9.75-28.75 9.75-25.75 6.25-11.25q21-9.5 41-9.5h6q22.5 2 23.5 14.5 0.5 10.5-12.75 20.75t-25.25 15.25q-15.5 6.5-15.5 14.5 0 2.5-2 10.5l-4.75 19t-3.75 16.5q10 9.5 23.25 23.75t21.75 23.75l8.5 9.5q7-4.5 13.5-4.5 1.5-43 27.5-146.5 2.5-9 3.75-20.5t1.75-20 1-25.5 1-27.5q0.5-10 0.5-23.5 0-20-1-48.5-1.5-47.5-1.5-50.5 0-17.5 15.25-28.75t31.75-11.25q16 0 29.75 7.75t15.75 20.75q1.5 8-2.75 16.25t-9.25 12.25l-5 4q-14.5 64.5-14.5 105.5 0 107 5 115.5 7 18 14.5 45.5t11.5 46l3.5 18.5q9 0 23.25 0.25t47.75 5.25 54 14.5q5.5-22 5.5-52 0-2.5 0.5-5.5 0.5-27.5-2.5-51.5-3-27-8-54.5t-8.25-42.5-5.75-23.5q-3-11-3-27v-7q1-20.5 6-34 4.5-12 19.75-19.25t27.75-7.25q11 0 26.25 9.5t16.75 19q1 6-4.75 15.75t-14.75 20.75-10 12.5q-4 6-4 21 0 16.5 5 43 3.5 20 14.75 53.75t17.75 45.75q22.5 41 23 74 0 5-1 10 14.5 14.5 27.75 49.5t14.75 67v5q0 29.5-16 95.5-17 72-23 87-5.5 13.5-2 22 4 10 10.5 22t12.5 37.5q5 22 5 44v7.5q6.5 4.5 12 14t8 17l2 7q0.5-1.5 1.75-3.75l3.75-6.75t5.25-6.5 4.25 0q6 9 6 22.5 0 4.5-1 9.5-3 20-8 34.25t-11.5 26.25q-15 27-43.5 27h-3q-25 16-56 23.5-29.5 7-47.5 7h-2.5l-19.5-1q-23.5 4-46.5 4-26 0-45.75-5.5t-26.75-11l-7-5.5h-5q-16.5 0-32-8-15-1.5-33-13.75t-19.5-32.75q-1.5-23-1.5-39 0-37 8-38.5 12-2 21 13 1-10 5.25-18.75t8.25-12.25l3.5-3.5q-5.5-40.5-7-78.5-60-4.5-108.75-11t-75.5-12.5-45-11.5-25.5-8.25-8.25-2.25q-20.5 8.5-37.75 26.25t-27.5 38.25-16.25 38.25-8 31.75q-4.5 30.5-9 30.5h-0.5q-2.5-0.5-3.5-8-1.5-15-1.5-29.5 0-18.5 2.5-36.5 4.5-31.5 13-51.75t19.25-36 17.75-22.5 10.5-8.75q4-3.5 3-5.25t-6.5-6.25q-6.5-5.5-17.5-19t-29.5-48.25-31.5-76.75q-24.5-80.5-47-199.5-0.5-3.5-7-16.25t-16.75-33-17.25-36.25q-43.5-30-43.5-51 0-4.5 1.5-8z" />
<glyph unicode="&#xe61a;" d="M0 174.8l57.5-23.5q15.5-71.5 73.25-118.5t132.25-47q81.5 0 141.5 54.75t68 134.75l269.5 197.5q76.5 0 141.5 37.75t102.75 102.5 37.75 141.25-37.75 141.25-102.75 102.5-141.5 37.75q-76 0-140.5-37.25t-102.5-101.5-38.5-140.25l-175.5-251.5q-14 1-22 1-58.5 0-107.5-29.5l-155.5 63.5v-265.5zM126 123.8l76.5-31q23-9.5 46-9.5l48 10.5q47 20 66 67.5 9.5 23 9.5 45.5 0 24-10.5 48-20 47-67.5 66l-64.5 26q17 4 33.5 4 64.5 0 109.75-45.25t45.25-109.75-45.25-109.5-109.75-45q-44 0-80.5 22.5t-56.5 60zM553.5 654.3q0 78 55.25 133.5t133.25 55.5 133.5-55.5 55.5-133.5-55.5-133.25-133.5-55.25-133.25 55.25-55.25 133.25zM592 655.3q0-62.5 44.25-106.75t106.75-44.25 106.75 44.25 44.25 106.75-44.25 106.5-106.75 44-106.75-44-44.25-106.5z" />
<glyph unicode="&#xe61b;" d="M0 460.3q0-88.5 29.25-170t82.75-148.5q-1.5 4-3.25 11.5t-2.75 33.5v7q0 23.5 4.5 49 5 30 22 77.5t45.25 98.5 79.75 119 120 139q-67 41-127 74.25t-86.5 45.75l-26.5 12.5q-65.5-70-101.5-159.75t-36-189.25zM142 107.8q71-74.5 166.75-116.25t202.75-41.75q107.5 0 203.5 42t167 117q-1 4.5-3.75 13t-14.5 36.5-27.75 57-46.25 72.25-66.75 85.5-92.25 93.75-120.75 99.5q-58-43-109.75-91.5t-88-91.5-66.5-85.25-48.75-76-31.5-59.75-18.5-40.5zM179.5 849.3q5 3 14.75 7.25t42.75 9.25q18.5 3 37.5 3 15.5 0 31.5-2 36-4 92-26.5t113.5-64.5v0q42 30 82.75 50.25t73 28.75 60.75 12q16 1.5 29 1.5 11 0 21-1.5 20.5-2.5 35.75-6.25t22.75-7.75l7.5-3.5q-68.5 58.5-153.75 90.5t-178.75 32-178.5-32-153.5-90.5zM646.5 676.8q54-56 97.5-109.75t71.5-98 48.75-85.25 31-73.25 16.25-60 6.5-47.75v-7.5q0-15-1-26-1-14-3-20.5l-2-7q53.5 67 82.75 148.5t29.25 170q0 99.5-36 189.25t-101.5 159.75q-90-40-240-132.5z" />
<glyph unicode="&#xe61c;" d="M0 426.8l2-338.5 419.5-54.5v393h-421.5zM0 477.8h421.5v410l-419.5-60.5zM462.5 27.3l561.5-76.5v476h-561.5v-399.5zM462.5 477.8h561.5v493l-561.5-76.5v-416.5z" />
<glyph unicode="&#xe61d;" d="M0 432.3q0 50 35 85l390.5 390.5q35 35 85 35t85-35l176.5-176.5-265-265-124.5 125q-27.5 27.5-66.5 27.5t-66-27l-80-80q-27.5-27.5-27.5-66.5 0-38.5 27.5-66l270.5-271q18-18.5 44.5-25l3.5-2.5h18.5q38 0 66 27l411 411.5 2-2q35-35 35-85t-35-85l-390.5-390.5q-35-35-85-35t-85 35l-390.5 390.5q-35 35-35 85zM201 445.8q0 14 9.5 24l79.5 79.5q10.5 9.5 24 9.5 15 0 24-9.5l167-167.5 382 382q9.5 9.5 23.5 9.5 14.5 0 24-9.5l79.5-80q10-10 10-24t-10-23.5l-485-485.5q-7.5-7.5-24-7.5v2.5h-0.5q-0.5 0-2-1.25t-2-1.25q-12.5 1.5-19.5 8.5l-270.5 270.5q-9.5 9.5-9.5 23.5z" />
<glyph unicode="&#xe61e;" d="M0 753.8q5.5 2.5 41.75 2.5t85.25-1q16-0.5 33-0.5 34.5 0 72.5 1.5 32.5 1 78.5 1 31 0 67.5-0.5 91.5-1 107.5-3l-5-36q-10-2.5-73.5-6.75t-77.5-7.75q40-59 121.75-165t93.25-123q7 10.5 56.25 50t93.75 79.75 47 58.25q-20 4-69.5 11t-60 7l-8.5 47q10.5 2 48.25 2t92-1 74.75-1q165.5 0 205-3l-30.5-44q-20.5-2.5-117-23.5-13.5-3.5-80.25-53.5t-132.75-108.5-73.5-80q-5.5-25-5.5-63.5l-1.5-37.5q0-20.5 11-93 8-2 75.5-2.25t78-1.75l-3-48q-21 1.5-252 1.5-13.5 0-106-2.5-64-1.5-95-1.5-14 0-21.5 0.5l8 45.5q2 0 38.5 0.25t64.25 4 37.25 13.75q2.5 2.5 3.75 4.75t2.25 6.25 1.25 7.5 0.25 11v14t-0.25 19.25-0.25 24.25v30q0 41-3.5 66-7.5 22-124 165t-155 173q-8.5 3-69.25 10.5t-71.75 10z" />
<glyph unicode="&#xe61f;" d="M7 665.3q0-76.5 38.5-141.5-9.5-46-9.5-96.5 0-98 38-187.25t102.5-153.75 153.75-102.75 187.25-38.25q44 0 88 8.5 63-33.5 132-33.5 75.5 0 140 37.5t102 102 37.5 140q0 65-29 124 11 49 11 103.5 0 78.5-24.25 152t-68.75 132.75-103.75 103.75-132.75 68.75-152 24.25q-41.5 0-82.5-7-67.5 42.5-148.5 42.5-56.5 0-108.25-22t-89.25-59.5-59.75-89.25-22.25-108.25zM229.5 291.3q0 26.5 20.5 45.5 19 18.5 50 18.5 25 0 42.5-15 17-14.5 28-41 12.5-29 28-49 15-20 40.5-31.5 24.5-12 69.5-12 61 0 97 25t36 60q0 29-18.5 46-19.5 18-51.5 28-35 11-88.5 22-72.5 15.5-126 38-52 22-83 60.5-31 39.5-31 96.5 0 54.5 32.5 97.5 32 41.5 93.5 64.5 60 22.5 141.5 22.5 65.5 0 112.5-15 48.5-15 79.5-39.5 31.5-25 46.5-52.5t15-55q0-26.5-19.5-46.5-19.5-20.5-49.5-20.5-27 0-41.5 13-13 11.5-28.5 38-17.5 34-43.5 53.5-23.5 18.5-80.5 18.5-51.5 0-83.5-20.5-29.5-19-29.5-46 0-16.5 9.5-28 11-13 28.5-22 18-9.5 39-15 44.5-11.5 66.5-16.5 58.5-12.5 106.5-28 49.5-16.5 82.5-37.5 34-22 54-57.5t20-84.5q0-60-34-107.5t-98-74q-63.5-26.5-150-26.5-104.5 0-172.5 36-49 26.5-79.5 70.5-31 44.5-31 87z" />
<glyph unicode="&#xe620;" d="M97 292.8l0.5 3 14.5 174q1.5 18 23.5 31 8.5 4 19.25 3t19.25-4l9-3 217-109.5q3.5-2 9-5.25t14.25-14.25 8.75-23q-0.5-12.5-4-21t-6.25-11-9.75-6.25-8-4.25l-253-56q-4-1.5-10.5-3.25t-19.25-0.5-17.75 9.75q-2 4-3.5 9.75t-2 11.5-0.75 10.75-0.25 8.5zM206 831.8q1 6 4 11 4.5 7.5 12 13.25t13 7.75l5 2 202 75q1 0 7 2 5.5 2 9 2h0.5q3.5 0 11.5-2.5 9-2.5 19.5-9 8.5-5 14.25-18.5t7.25-24.5l2-11 2-346q0-1.5-0.5-4.5t-3-10.5-5.75-13.5-9.75-12-14.5-8q-12-3-23.75 0.75t-17.75 9.25l-5.5 5-209.5 285.5q-0.5 0.5-1.5 2t-3.75 5.25-5.25 8-4.75 9.75-3.25 10.5q-0.5 3-0.5 6.5-0.5 2 0 4.5zM262 6.3q-1 3-1 6.5 0 6 2.5 13 4 11.5 9 19l5 7.5 169.5 186.5q1 1 3 2.25t7.75 5 11 5.25 13 2.5 13.25-3q9-4.5 14-13.25t6-14.75l0.5-6.5-3.5-252.5q-0.5-1.5 0.25-9.25t-4-18.5-14.75-13.75q-7-2-16-2t-14.5 1l-5.5 1-170.5 53.5q-18.5 9.5-25 30.5zM591.5 419.55q0 9.25 2.5 15.25l3 6.5 137.5 216q1.5 3 4.5 7.75t13 11.75q8.5 6.5 17 6.5h2.5q9.5-0.5 17.25-5.25t10.75-9.25l3-4.5 116-137q1-2.5 2.25-6.25t3.75-15-0.5-18.25q-2-8-11.5-16t-17.5-12l-8.5-3.5-243-71q-4-0.5-10-1t-18.75 3-18.25 13q-5 10-5 19.25zM601 269.8q0 13 8 21 7 7 17 9.5 7 2 12 2 2 0 4-0.5l6.5-1 243.5-78.5q1.5 0 3.75-0.75t8.25-3 10.75-5.25 8.25-8.25 3.5-11.75q0-7.5-2.75-16.25t-5.25-13.75l-2.5-5-103-147q-18.5-15.5-37-15.5-8 0-18 7.25t-16 14.75l-5.5 7-130.5 217q-1.5 3-3.5 9-2 5-2 16 0.5 1.5 0.5 3z" />
<glyph unicode="&#xe621;" d="M154 376.3q0-102.5 26-188t71.25-143.75 108-91 135.75-33.25h2q68 0 136 30.5 69 31 120.5 80.5t83.75 115.25 32.75 131.25v4.5q0 56.5-12.5 104.5-13 50-32.5 84t-52 65.5-60.75 51-69.75 43.5q6.5-33 6.5-64 0-10-1-19.5-3-39.5-15.25-69.75t-32.5-54-47.25-35.75-58-15.5q-8-1-15.5-1-24 0-50 8 32 52.5 49.5 97.5 18 45 21 79 1.5 13.5 1 25.5 0 19.5-3 37.5-5 29-16.25 53.25t-24.25 47-24.5 46.75q-11 24-18 49-5 18-5 40 0 9 1 19 3 33 16.5 70.5-67.5-48-131-144.5t-103-211.75-39.5-211.75zM243.5 227.8q-0.5 9-0.5 19 0 47 16 103 19.5 68 63 139.5-8.5-38-8.5-73 0-23.5 4-45.5 9.5-55 34.25-95t59.75-62.75 71.5-23.25h2q38.5 0 72 17 34 18 59 51t43.25 75 30.25 94.5q43-33 66.75-78.75t26.75-93.25q0.5-6.5 0-12.5 0-41-15.5-82-18-47-53-84t-92-60.75-127.5-25.25h-5.5q-45.5 0-87 15.5-44 16.5-78.75 46.5t-55.5 75.5-24.75 99.5z" />
<glyph unicode="&#xe622;" d="M72 287.8q0 145.5 95.5 253 105 118.5 265.5 118.5 68 0 125.5-21-23-45.5-27-86.5-46.5 19-98.5 19-111.5 0-191-83.5-80-84-80-201.5 0-75 36.5-142 36.5-65.5 98.5-101.5 39.5-23 88-31.5 42.5 16.5 77.5 48.25t58.5 70 41.75 86 28.25 92.75 16.5 94.5 8.5 87.25 2 74.5-0.75 52.75-1.25 25.5q-52.5 152-142 302 5-3.5 13.25-10t30.25-32.25 40-57 35.25-85.5 23.25-115.75v-1.5l2-7q31-83.5 38-162.5 2.5-29 2.5-56 0-45-7.5-83-12-60-37.5-114.5t-53-90.25-57.75-65.5-45.5-41.25-22.25-16h-0.5q73.5 1 134 36 62 36 98.5 101.5 36.5 67 36.5 142 0 61-22 114 42.5 8.5 84.5 34.5 27.5-67 27.5-146.5 0-147.5-100.5-257-101.5-110.5-260-110.5t-260 110.5q-101 110-101 257zM432 6.3v0zM627 663.3v3q0 19.5 9 44.5 9.5 27 32 50 3 3.5 10 9.25t34.75 19.5 63.25 22.75q3.5 0.5 9 2.25t21.75 9.75 30.75 18.75 32.25 31.5 29.75 46.75q3.5-5 9.25-14.5t18.25-40 19-62.5q5.5-26 5.5-62.5 0-8-0.5-17-1.5-48-17-94-1-3-3.25-8.25t-10-19.75-16.5-27.5-23.5-28-30.75-24.5q-24-14-50-18-6.5-1-13.5-1-20.5 0-46.5 9-34 12-66.5 43 8.5 4.5 22.25 12.75t49.75 33 64 48.5 51.75 55.75 25.75 58.5q-1.5-3-4-8.25t-12.5-20.75-22-30.25-32.25-34.25-43-35.25-54.75-30.5-67.5-22.75q-2.5 4-6.25 11t-10.25 28.25-7.5 41.75z" />
<glyph unicode="&#xe623;" d="M0 118.8v72q0 59 42 101t101 42 100.75-41.75 41.75-101.25v-72h-285.5zM11 494.8q0 55 38.5 93.5t93.5 38.5 93.5-38.5 38.5-93.5-38.5-93.5-93.5-38.5-93.5 38.5-38.5 93.5zM317 118.8v80q0 66 46.5 112.5t112.5 46.5 112.5-46.5 46.5-112.5v-80h-318zM329 536.8q0 61 43 104t104 43 104-43 43-104-43-104-104-43-104 43-43 104zM667 118.8v90q0 74 52.25 126.25t126.25 52.25 126.25-52.25 52.25-126.25v-90h-357zM681.5 581.8q0 68 48 116t116 48 116-48 48-116-48-116-116-48-116 48-48 116z" />
<glyph unicode="&#xe624;" d="M3 642.3q-3 10-3 19.5 0 16 8 31.5 13 24.5 40 33 96 29 217.5 39.5 64.5 5.5 130.5 5.5 58-0.5 118-4.5 127-9 253.75-44t223.25-92.5q24-14.5 31-41.5 2-8.5 2-17 0-17.5-9.5-33.5-14.5-24-41.5-31-9-2.5-17.5-2.5-17 0-33 9.5-111 66-268.5 97-134.5 26.5-262.5 26.5-21.5 0-43.5-1-148-5-261-39-10-3-20-3-16 0-31 8-24.5 13-33 39.5zM51 413.3q-2.5 8-2.5 16 0 13.5 7 26.5 11 20.5 33 27.5 136 41.5 285 41.5 65.5 0 133.5-8 223-26 389.5-129 20.5-12 25.5-34.5 1.5-7 1.5-13.5 0-15-8.5-29-12.5-20-35-25-7-1.5-13.5-2-15 0-29 8.5-145 89.5-345 112.5-62 7-121 7-132 0-250.5-36-8-2.5-16-2.5-13.5 0-26.5 7-20.5 11-27.5 33zM79.5 202.8q-1 5-1 10 0 12.5 7 24 10 16 28 20 144.5 33 273.5 33 239.5 0 425-113.5 16-9.5 20-27.5 1.5-5.5 1.5-11 0-12-6.5-23-10-16-28-20-5.5-1.5-11-1.5-12 0-23 6.5-164 100-379 100-118.5 0-252.5-30.5-5-1-10.5-1-12.5-0.5-23.5 6.5-16 10-20 28z" />
<glyph unicode="&#xe625;" d="M0 432.3q0-104.5 40.5-199.25t109-163.25 163.25-109 199.25-40.5 199.25 40.5 163.25 109 109 163.25 40.5 199.25-40.5 199.25-109 163.25-163.25 109-199.25 40.5-199.25-40.5-163.25-109-109-163.25-40.5-199.25zM117 431.8v3.5q0 49 12.5 98.5 3.5 15 9 30 29.5 85.5 94.25 151t150.25 96q65 23 133 23 100 0 189.25-48t144.25-131.5q26-39.5 44-89 6-17.5 9.5-31 12-46.5 12-102 0-17-2-32.25t-6.5-30.25-12.5-25.5-19-17q-9.5-6-23-6-2 0-3.5 0.5-16 0.5-35.5 8.5-49 20.5-94 82-52.5 72.5-86 111.5-46 53-92.5 94-58 51-109 75.5-37.5 18.5-82.5 31-12.5 4-14.5 0.5-1.5-2.5 0-9.5 0.5-3 1.25-8.75t0.75-8.75q6-50.5 6-93.5 0-70-16-120-17.5-56.5-61.5-96.5-46-42-87.5-42h-3.5q-12.5 1-18.5 3-24 8-31.25 29.5t-7.25 53.5z" />
<glyph unicode="&#xe626;" d="M0 422.3q0 140.5 68 217.5t196 77q117.5 0 182.25-47.25t101.75-161.25l38.5-117.5q11-34 26-59.5t37.75-46.25 56-31.5 76.25-10.75q61.5 0 91.75 14.5t30.25 46.5q0 27-18.5 45t-61.5 28l-79.5 18.5q-71.5 17.5-103.75 55t-32.25 99q0 37 11.75 66.25t31.25 48 46.75 31 56.5 17.25 62.25 5q188.5 0 202-149l-117.5-14q-3.5 37.5-26 54.5t-65.5 17q-39 0-61.25-16.75t-22.25-46.75q0-27.5 14.75-43.5t52.25-24.5l75-16q78-18 116.5-58.25t38.5-109.75q0-162-244-162-59 0-106.5 10.75t-80 28.5-57.25 45-40 55.75-27.25 65.5l-37.5 117.5q-9.5 29-18 49t-22 41-29.75 33.5-40.25 20.5-54 8q-22.5 0-42.75-6.25t-39-21-32.5-36.75-22-55.75-8.25-75.75q0-83.5 38.5-133.25t100-49.75q25.5 0 50.75 7t42.75 17 31.5 20 20.5 17l7 7 37.5-102q-2.5-2.5-7.5-6.75t-23.25-15-39-19-55-15-71.25-6.75q-123.5 0-189.5 70.5t-66 204z" />
<glyph unicode="&#xe627;" d="M0 637.3l149.5 133q101 87.5 151.5 92 7 0.5 14 0.5 50 0 82.5-36 37-41 51-128 30.5-191 41-234.5 34.5-156.5 76-156.5 32 0 96.5 101.5t69 154.5q1 9 1 17.5 0 70.5-70 70.5-35.5 0-75.5-17 73.5 240.5 277 240.5h11q149.5-4.5 149.5-184 0-10-0.5-21-6.5-148.5-209-409.5-208.5-271.5-353-271.5-90 0-151.5 165.5l-83 303q-46 165.5-98.5 165.5-11 0-80.5-48.5z" />
<glyph unicode="&#xe628;" d="M147.5 70.8l44-43 0.5 2.5 88.5 421.5-88.5-424.5 112 10.5 62 343.5 19.5 11.5 1 1h0.5l1.5 13.5 1 6 13 102-12.5-102-2.5-19.5-1.5-1-19.5-11.5-62.5-343.5-4-22.5 54.5-23.5 11.5 3.5 2.5 0.5-0.5-9 88-37v-1l179.5 30-0.5 9.5 3.5 1 27-3.5v1h-2.5l94.5 16.5-3.5 19.5 1-1 29-7.5 39.5 7.5-1.5 8.5v-1.5l54.5 10.5-76.5 369.5-31.5 11-35.5-14-9 57.5-65 24.5-21.5 212 33 33.5-136.5 88-7.5 151.5h-3.5l-11-138 9.5-6-11 6.5-8.5 4.5v0.5l-104.5-138 26-19-13.5-109.5-20.5 4-15-23.5-16-108-72 16-27-24.5-13-53-15-12-83-298.5zM410.5 451.8l1.5 12 68.5 48-0.5-10.5zM418.5 516.3l1 8 63 51 0.5-1-0.5-10-62-50.5zM424.5 563.8l1 5.5 1 8 59 56-0.5-12zM429 354.8v0.5l2 15.5v0zM431 614.8l2 13 54.5 56-0.5-13zM438 675.8l2 11 49.5 47.5-0.5-11-50.5-47.5h-0.5zM455.5-51.2v0zM481 344.8v0.5l5.5 91zM487.5 454.3h0.5v-0.5zM487.5 455.3h1v-0.5l4-2 3-1h-0.5l-2.5 1h-0.5l-1.5 0.5-2.5 0.5h0.5v0.5h-0.5zM488.5 453.8l4-1zM545.5 670.3l1 34.5 24-12.5 0.5-34.5zM545.5 719.3v37l22.5-12 1-37.5zM546 557.3v48l27-13 2-47zM546 618.8v37.5l25.5-13 1.5-37.5zM546.5 436.3v39l31-12.5v-55l-6 2.5 0.5 18.5zM546.5 491.8v49l29.5-12 1.5-48zM588 733.8l21.5-11.5 1.5-38-22 11.5zM590 681.8l22.5-12 1.5-34.5-23.5 12zM591 632.8l23.5-12 2.5-36.5-24.5 11.5zM593 582.3l24.5-11.5 3-45.5-25.5 10.5zM595.5 457.3l25.5-7.5 2.5-42-7.5-4 0.5-7-19 6.5zM595.5 519.8l26-11 3-46-27 9z" />
<glyph unicode="&#xe629;" d="M62 819.3q16.5-126.5 43.5-238.75t56.75-193 65-150.25 66.25-114 63.25-79.75 52.5-52 37.25-26.75q26-15.5 51.5-15.5 24 0 48 13.5 16 9.5 41.75 31.75t59 57.75 66.5 77 67 94.25 58.25 104.25q63 0 123.5 14v122q-46-9-76-9-100 0-164.75 66.5t-64.75 181q0 56 19.5 86.25t52 30.25q31 0 49-27.5t18-81q0-47.5-19.5-113.5 0.5-1 1.5-2.5t4.75-6 8.25-8.75 11.75-10 15.75-10 20-8.25 24.25-5.75 29-1.25 33.75 4q35.5 79.5 35.5 176.5 0 118.5-58.5 183.25t-168 64.75q-73.5 0-128.25-35.25t-82.75-95.75-28-137.5q0-114 50.25-205.25t137.25-135.25q-73-146-177-250-39 47-69.5 92t-63 108.75-56.75 134-45.25 165.25-34 205.5h-174.5z" />
<glyph unicode="&#xe62a;" d="M0 367.8q1-44 23.25-79.5t66.25-54q37.5-16 86-16h8.5q87.5 2.5 137 71 9.5 14 20 30.5 1 0 1-0.5 0.5-1 1.5-3.25t1.5-3.25q37-73 108-87.5 21.5-4.5 42-4.5 55.5 0 101.5 33.5 14.5 10.5 48 42l9.75 9.75t11.25 12 10 10.75q10-11 12-13 44.5-43 58-54.5 48.5-40 112-40 6 0 11.5 0.5 93 5.5 132 82.5 23 46 23 92.5 0 42-18.5 85-15.5 35.5-45.5 57.5-30 22.5-62.5 28.5-19 3.5-38.5 3.5-14 0-28.5-2-50.5-7-92-46-5-4.5-57-59.5l-5.5-5.5q-4.5 4.5-24.25 25.5t-30.75 31.5q-46.5 45-110.5 54-12.5 1.5-25 1.5-39 0-72-17-43.5-22.5-67.5-70.5l-7-14q-36.5 68-101.5 79.5-17 3-32.5 3-53.5 0-91.5-35-0.5 3-0.5 5 2 10.5 8 43.5t9 51q1.5 8.5 10 8.5h188v79h-266.5l-47-263.5q57.5 0 69-0.5 19-1 27.5 11.5 2 3 14 12.5 21 15.5 47 15.5 8 0 16-1.5 35.5-6 54.5-34 15.5-23 15.5-53.5 0-4.5-0.5-8.5-2.5-35.5-24-59-24-26-57.5-26-12.5 0-26 3.5-39.5 10-51.5 57.5-1 3-2 10h-96.5zM417.5 400.3q0.5 9.5 3 19.5 6.5 25.5 25 40.25t43 15.75q15 0 28.5-4 25-7.5 49.5-28.5l49-45.5q5-4 0-9-2.5-2.5-14.75-14.25t-17.25-16.5-15-12.5-19-12.75q-28-16-57-16h-1.5q-34.5 0-55 23-19 21-18.5 53-0.5 3.5 0 7.5zM730 394.3l53 50q30.5 28 66 31.5 1 0 4 0.25t4 0.25q30 0 50.25-18t23.75-48.5q1-8.5 1-16.5 0-11-2-20-5.5-27-23.75-41.5t-45.75-15.5h-1.5q-40 0-72 26.5-1 0.5-57 51.5z" />
<glyph unicode="&#xe62b;" d="M0.5 69.3q0-13.5 1-20 5.5-42.5 38.75-71.5t76.25-29h790.5q5 0 14 1 43.5 5.5 73 38.5t29.5 77v791l0.5 5q0 5-0.5 5-5 46-38.75 76.25t-79.75 30.25h-786.5q-11 0-20.5-2-43.5-8-70.25-40.75t-26.75-77.25v-392q0-65-0.25-195.75t-0.25-195.75zM113.5 107.8v435h93.5q-10-41.5-10-81.5 0-76.5 36.5-146.5 42-80.5 121-126 73-42.5 157.5-42.5 5 0.5 10 0.5 90 3 165 52.5 82.5 55 119 150.5 20.5 53 20.5 110.5 0 40-10 82.5h85.5v-8q0-71 1-213.5t1-213.5q0-18-11-29.5t-29-11.5h-708q-18 0-30.25 11.5t-12.25 29.5zM315 460.8q0 81.5 57.75 139.25t139.25 57.75 139-57.5 57.5-139.5-57.5-139.5-139-57.5q-82 0-139.5 57.5t-57.5 139.5zM709 697.3v117.5q0 17 11.5 28.25t28.5 11.25q10 0 29 0.25t29 0.25 29.5-0.25 29-0.25q17.5 0 28.75-11.25t11.25-28.25v-117.5q0-17-11.25-28.25t-28.25-11.25h-117q-17.5 0-28.75 11.25t-11.25 28.25z" />
<glyph unicode="&#xe62c;" d="M0 460.8q0-104 40.5-198.75t109.25-163.5 163.5-109.25 198.75-40.5 198.75 40.5 163.5 109.25 109.25 163.5 40.5 198.75-40.5 198.75-109.25 163.5-163.5 109.25-198.75 40.5-198.75-40.5-163.5-109.25-109.25-163.5-40.5-198.75zM51.5 460.8q0 97.5 40 187.5l219.5-602q-117 57-188.25 168.5t-71.25 246zM127.5 713.8q63 95.5 164.5 151.5t220 56q88.5 0 168.25-31.75t142.75-89.25q-1 0-3 0.25t-3 0.25q-33 0-55.25-24.5t-22.25-57.5q0-6 0.5-12t2.5-12.75 3.25-11.25 5.25-12.5 5.25-11 6.75-12.25 6.75-11.25 7.75-12.75 7.5-12.25q38-66 38-127 0-6-0.5-12.5t-1.25-11.75-2.25-13.5-2.5-13-3.75-14.75-4-14.5-4.75-16.25-5-16-5.75-18-5.75-18.25l-45.5-153.5-166.5 495 52.5 4q12 1.5 16 11.25t-1.5 18.5-17.5 8.25q-74.5-5.5-122.5-5.5-20 0-50.25 1.25t-50.25 2.75l-20.5 1.5q-12 0.5-17.5-8.5t-1.5-19 16-10.5q23-2.5 48-4l72-196.5-101-302.5-167.5 499 52.5 4q12 1.5 16 11.25t-1.5 18.5-17.5 8.25q-74.5-5.5-122.5-5.5-18.5 0-29.5 0.5zM382 19.3l138 401.5 141.5-388q0.5-1.5 1.75-3.5t1.75-2.5q-75-26.5-153-26.5-64.5 0-130 19zM743.5 62.8l140.5 406.5q35 86.5 35 165 0 25.5-3 47.5 56.5-103 56.5-221 0-125.5-62.25-231.25t-166.75-166.75z" />
<glyph unicode="&#xe62d;" d="M962 332.8q0-177-24-259t-80-96q-3-1-22-6.5t-31-8-33.5-6.5-45.5-6-52-2q-104 0-128 32-10 14-21 45t-11 51q0 67 28.5 97.5t99.5 30.5q64 0 64-32 0-1-7-8.5t-23-15.5-34-8q-14 0-39-20.5t-25-43.5q0-21 26-42.5t70-21.5q19 0 31 1t26 4.5 21.5 10 12.5 18.5 5 30v128q0 14-2 24.5t-5 17.5-9.5 11.5-11.5 7-15 3.5-16 1-18-0.5-19-0.5q-102 0-128 32l-4.5 5.5t-7.5 9.5-7 11-7.5 17-5.5 21q0-30-31.5-69t-69.5-65-59-26h-96q-30 0-76.5 36.5t-81 83-34.5 72.5v256q0 27 17 45.5t47 18.5h128q20 0 42 23t22 41v128q0 29 25.5 46.5t77.5 17.5q58 0 108-19t77-45q71-1 110-3t84-9 62-20q27-21 41-33.5t29-31.5 20.5-42 5.5-53v-384zM770.5 588.8q-26.5 0-45.5-19t-19-45l103-51q25 19 25 51 0 26-18.5 45t-45 19zM226 780.8h-159l-1 1q-2 4 27 43t54 67q24 26 62 55t47 26l2-4v-156q0-13-9-22.5t-23-9.5z" />
<glyph unicode="&#xe62e;" d="M55.52 402.176l385.728-194.592 68.864 194.592-385.696 184.256-68.896-184.256zM518.752 402.176l65.44-192.864 399.488 194.592-77.504 182.528-387.424-184.256zM-7.904 742.016l132.608-154.976 385.696 196.288-125.696 160.16-392.608-201.472zM1031.904 738.592l-384.032 204.896-130.88-160.16 389.184-196.288 125.728 151.552zM101.6 353.504l-1.312-186.848 406.816-188.576v351.36l-58.112-151.552-347.392 175.616zM521.312 329.44v-351.328l405.568 188.576v185.568l-351.68-174.72-53.888 151.904z" />
<glyph unicode="&#xe62f;" d="M512 924.16c-248.832 0-450.56-201.728-450.56-450.56 0-113.766 42.138-217.652 111.718-296.91 70.45 70.452 167.014 110.028 277.862 106.446 141.362-4.558 252.928-71.526 316.928-180.378 117.556 81.306 194.61 217.038 194.61 370.842 0 248.832-201.778 450.56-450.56 450.56zM732.314 312.986c-7.936-13.158-24.934-17.202-37.99-9.268-104.346 63.744-235.622 78.13-390.246 42.854-14.848-3.43-29.748 5.888-33.074 20.838-3.43 14.848 5.836 29.696 20.786 33.076 169.164 38.656 314.318 21.966 431.36-49.46 13.004-7.986 17.152-24.986 9.164-38.042zM786.586 440.78c-9.984-16.282-31.284-21.35-47.566-11.316-119.296 73.318-301.362 94.566-442.572 51.712-18.33-5.53-37.682 4.812-43.212 23.040-5.53 18.33 4.814 37.682 23.040 43.214 161.332 48.998 361.882 25.292 498.996-58.982 16.282-10.086 21.452-31.284 11.316-47.668zM791.296 573.184c-143.104 85.094-379.29 92.826-515.942 51.404-21.914-6.706-45.106 5.734-51.866 27.648-6.604 21.964 5.786 45.21 27.75 51.814 156.928 47.668 417.69 38.45 582.452-59.392 19.764-11.726 26.266-37.222 14.542-56.934s-37.12-26.164-56.934-14.542zM448.102 148.428c-63.386 2.048-116.174-22.682-154.676-68.914 64.716-35.942 139.214-56.474 218.574-56.474 38.246 0 75.418 4.762 110.848 13.774-33.996 69.734-93.236 109.004-174.746 111.616z" />
<glyph unicode="&#xe630;" d="M512 965.12c-271.462 0-491.52-220.058-491.52-491.52 0-124.11 45.978-237.466 121.856-323.892 76.902 76.902 182.222 120.064 303.104 116.174 154.214-5.018 275.968-78.028 345.754-196.812 128.256 88.678 212.326 236.75 212.326 404.532 0 271.462-220.058 491.52-491.52 491.52zM752.282 298.394c-8.654-14.336-27.188-18.74-41.472-10.086-113.87 69.53-257.024 85.248-425.678 46.746-16.178-3.738-32.462 6.4-36.096 22.732-3.738 16.128 6.348 32.41 22.63 36.096 184.576 42.188 342.886 23.962 470.58-53.966 14.234-8.704 18.79-27.29 10.034-41.524zM811.622 437.81c-10.906-17.818-34.202-23.346-51.918-12.39-130.252 80.026-328.806 103.22-482.868 56.474-20.020-6.042-41.114 5.274-47.104 25.14-6.042 20.020 5.222 41.114 25.14 47.104 175.974 53.504 394.752 27.596 544.358-64.306 17.766-11.060 23.346-34.202 12.39-52.020zM816.692 582.246c-156.16 92.826-413.748 101.274-562.842 56.064-23.962-7.322-49.254 6.196-56.526 30.158-7.218 23.962 6.298 49.358 30.158 56.524 171.214 51.968 455.68 41.932 635.442-64.818 21.554-12.8 28.672-40.602 15.924-62.158-12.85-21.452-40.602-28.518-62.158-15.77zM442.318 118.886c-69.17 2.202-126.72-24.73-168.754-75.162 70.606-39.27 151.91-61.644 238.438-61.644 41.728 0 82.226 5.222 120.934 15.002-37.068 76.134-101.734 118.938-190.618 121.804z" />
<glyph unicode="&#xe631;" d="M312.782 939.418l-292.3-182.068 200.242-167.884 291.276 189.184-199.218 160.768zM688.742 166.706c-5.222 0-10.394 1.792-14.592 5.326l-162.15 134.452-162.15-134.502c-4.198-3.482-9.42-5.326-14.592-5.326-4.352 0-8.704 1.178-12.492 3.686l-120.116 78.592v-46.386l309.35-194.764 309.35 194.816v46.388l-120.116-78.592c-3.788-2.51-8.14-3.686-12.494-3.686zM1003.52 757.35l-292.3 182.068-199.22-160.768 291.226-189.132 200.294 167.834zM512 407.5l180.582-149.914 288.87 188.826-178.176 143.052-291.276-181.966zM331.418 257.586l180.582 149.914-291.226 182.016-178.176-143.104 288.82-188.826z" />
<glyph unicode="&#xe632;" d="M887.756 765.030c0 58.88-88.678 65.434-88.678 65.434l-208.332 13.106c0 0-4.454 56.73-46.592 76.39-42.086 19.61-88.37 13.67-121.6 13.312s-41.166-42.802-41.166-82.842 0.768-86.118 0.768-115.2c0-52.020-22.886-74.19-80.178-74.19h-118.118c-33.024 2.15-58.778-3.276-58.778-30.002 0-26.674 38.912-254.566 92.262-307.15 30.976-30.514 220.364-51.918 260.25-51.918s26.624 117.812 37.682 117.812 23.296-66.56 86.118-82.126c62.822-15.668 146.688-12.75 151.142-57.446 5.786-58.982 11.058-135.322-27.75-140.75l-87.808-3.482c-60.212 4.352-44.082 70.092-17.51 70.092s39.884 1.076 39.884 1.076l3.328 71.986c0 0-137.882 16.282-143.77-76.75-5.326-84.992 9.268-125.082 19.968-133.786 10.752-8.806 29.286-25.804 198.144-25.804 237.926 0 150.734 693.402 150.734 752.23zM790.528 457.166c-9.318-9.932-43.11 16.436-75.366 16.436-32.308 0-67.174-17.1-75.366-5.888-8.14 11.264 7.526 101.99 68.352 101.99s91.75-102.554 82.38-112.538zM297.114 772.3c0 11.622 3.022 152.782 3.022 152.782l-179.508-176.078c0 0 124.006 0 148.326 0 24.422 0 28.16 11.622 28.16 23.296z" />
<glyph unicode="&#xe633;" d="M413.236 509.338c0 0 96.922 7.526 96.922 125.952s-79.308 176.23-179.712 176.23h-330.444v-661.812h330.444c0 0 201.678-6.606 201.678 195.278 0.052 0 8.806 164.352-118.886 164.352zM145.612 693.914h184.832c0 0 44.902 0 44.902-68.864s-26.418-78.848-56.422-78.848h-173.312v147.712zM321.074 267.314h-175.462v176.896h184.832c0 0 66.97 0.922 66.97-90.88 0-77.414-50.022-85.452-76.338-86.016zM801.178 643.124c-244.224 0-244.020-254.208-244.020-254.208s-16.742-252.98 244.020-252.98c0 0 217.294-13.004 217.294 176.026h-111.718c0 0 3.686-71.22-101.836-71.22 0 0-111.77-7.782-111.77 115.098h329.062c0.052-0.052 36.046 287.284-221.030 287.284zM900.558 444.16h-208.588c0 0 13.67 102.042 111.77 102.042 97.996 0 96.818-102.042 96.818-102.042zM926.618 772.558h-262.042v-81.51h261.99v81.51z" />
<glyph unicode="&#xe634;" d="M453.182 544.71c0-75.214 39.986-105.298 81.22-105.298h26.256v215.61h-31.88c-38.11 0-75.596-31.958-75.596-110.312zM830.284 486.856l-157.268 268.7c-18.926 32.78-13.354 31.654-48.506 31.894h-358.626c-44.736 0-81.338-36.6-81.338-81.336v-490.63c0-44.736 36.606-81.338 81.338-81.338h358.278c21.87 0 26.096-0.348 37.282 19.832l169.62 282.7c10.282 16.972 12.35 32.612-0.78 50.178zM608.77 230.070c0-3.124-1.254-5-5.002-5h-38.756c-2.482 0-4.352 2.502-4.352 4.378v169.86h-31.26l-86.844-169.86c-1.248-3.128-3.75-4.378-7.498-4.378h-44.364c-4.984 0-8.106 4.378-4.984 10.022l95.58 172.986c-51.22 22.566-79.972 68.312-79.972 130.358 0 103.418 59.366 156.694 129.332 156.694h71.24c4.37 0 6.876-1.876 6.876-6.272l0.002-458.788z" />
<glyph unicode="&#xe635;" d="M718.324 335.106c-138.054 88.818-271.824 89.508-408.63 1.364-1.634 8.37-3.624 15.462-4.304 22.676-2.204 23.464-1.228 47.61-6.618 70.276-4.896 20.618-12.516 43.294-26.274 58.362-14.116 15.458-15.792 28.632-11.6 46.216 40.126 168.11 234.58 250.394 382.988 161.778 66.274-39.576 108.656-96.578 121.742-173.334 1.518-8.918-2.052-22.232-8.308-28.298-19.958-19.322-29.064-42.224-31.182-69.056-2.282-28.764-4.974-57.502-7.814-89.984zM511.686 204.812c-53.416 0.014-106.892 1.446-160.234-0.632-24.362-0.946-32.108 7.994-32.532 30.324-0.304 15.63-1.442 31.762-5.662 46.692-7.402 26.17 3.828 41.19 25.028 53.646 69.53 40.842 145.026 48.886 223.146 40.386 48.874-5.322 95.458-18.518 136.060-48.376 11.98-8.802 17.904-18.084 15.462-33.578-3.534-22.468-5.744-45.206-7.354-67.908-1.122-16.064-8.526-21.048-24.212-20.846-56.556 0.726-113.132 0.282-169.702 0.292zM709.092 167.248c9.022 83.652 17.312 167.384 27.32 250.922 6.284 52.43 52.11 92.924 102.558 93.556 48.886 0.614 89.518-34.606 97.89-84.858 7.76-46.582-21.648-92.798-71.9-107.568-19.042-5.598-28.68-15.564-35.486-32.924-12.332-31.448-26.662-62.112-39.576-93.338-4.166-10.068-9.102-20.862-9.196-31.354-0.236-29.666-2.524-31.634-48.566-30.794-26.776 0.482-24.774 18.202-23.044 36.358zM316.794 157.67c-1.822-4.076-4.834-21.216-10.892-22.37-17.788-3.392-36.816-0.824-55.262 0.602-2.048 0.152-3.596 7.952-5.204 12.276-19.346 51.894-37.876 104.12-58.826 155.358-3.074 7.52-17.122 11.684-26.896 15.14-44.602 15.796-72.112 51.078-72.332 94.222-0.218 42.282 26.732 80.226 66.416 93.508 59.478 19.91 125.384-20.124 134.412-86.046 11.596-84.766 18.734-170.146 28.584-262.69z" />
<glyph unicode="&#xe636;" d="M125.296 734.996c17.79 40.016 49.794 49.928 91.448 49.608 184.96-1.402 369.942-0.634 554.912-0.578 21.302 0.004 43.72 0.278 58.502-17.098 9.788-11.506 20.312-27.328 20.448-41.314 0.878-89.874 3.924-180.164-3.124-269.576-11.608-147.284-123.52-271.826-267.434-307.744-205.656-51.324-407.398 76.94-447.818 284.836-2.884 14.842-4.648 29.902-6.934 44.862 0 85.668 0 171.334 0 257.004zM490.078 456.088c-9.592 8.764-18.18 16.328-26.446 24.226-36.162 34.548-72.012 69.42-108.41 103.716-23.57 22.208-52.582 21.834-73.474 0.034-19.66-20.514-19.642-51.294 1.902-72.176 56.198-54.49 112.812-108.558 169.818-162.196 22.99-21.638 47.364-23.114 69.964-2.088 58.882 54.812 117.368 110.126 174.16 167.082 28.78 28.862 12.368 75.798-27.428 84.594-20.592 4.554-36.2-5.196-50.446-18.95-42.688-41.222-85.664-82.148-129.64-124.242z" />
<glyph unicode="&#xe637;" d="M654.59 565.368c57.736 0 104.558 46.824 104.558 104.56 0 57.732-46.82 104.558-104.558 104.558-57.732 0-104.562-46.826-104.562-104.558-0.002-57.74 46.83-104.56 104.562-104.56v0zM312.392 591.98c34.634 0 62.734 28.082 62.734 62.738 0 34.638-28.1 62.738-62.734 62.738-34.644 0-62.738-28.1-62.738-62.738 0-34.656 28.092-62.738 62.738-62.738v0zM312.392 580.578c32.57 0 60.878-18.188 75.328-44.968 19.1 20.634 46.416 33.556 76.758 33.556 41.676 0 77.648-24.374 94.448-59.652 25.296 22.896 58.844 36.844 95.662 36.844 78.76 0 142.582-63.824 142.582-142.592 0-3.208-0.264-6.344-0.472-9.498h0.472v-247.154h-285.168v129.28h-152.088v64.638h-133.074v148.288h0.286c-0.138 1.902-0.286 3.782-0.286 5.708 0 47.256 38.288 85.55 85.552 85.55v0zM464.478 583.126c42.334 0 76.666 34.308 76.666 76.666 0 42.334-34.33 76.672-76.666 76.672-42.338 0-76.674-34.338-76.674-76.672 0-42.358 34.338-76.666 76.674-76.666z" />
<glyph unicode="&#xe638;" d="M830.286 486.856l-157.268 268.7c-18.928 32.784-13.354 31.656-48.506 31.898h-358.628c-44.736 0-81.338-36.602-81.338-81.338v-490.63c0-44.736 36.606-81.338 81.338-81.338h358.278c21.872 0 26.096-0.346 37.284 19.832l169.62 282.7c10.282 16.97 12.35 32.61-0.78 50.176zM586.516 654.104c43.34 0 78.69-35.346 78.69-78.688s-35.35-78.688-78.69-78.688c-43.336 0-78.686 35.346-78.686 78.688s35.35 78.688 78.686 78.688zM429.748 690.822c43.34 0 78.688-35.346 78.688-78.688 0-43.336-35.346-78.688-78.688-78.688s-78.688 35.35-78.688 78.688c0 43.338 35.35 78.688 78.688 78.688zM240.866 494.72c0 43.34 35.346 78.688 78.688 78.688s78.688-35.346 78.688-78.688-35.346-78.688-78.688-78.688-78.688 35.35-78.688 78.688zM366.144 261.906c-43.34 0-78.688 35.346-78.688 78.688s35.346 78.688 78.688 78.688 78.688-35.346 78.688-78.688-35.348-78.688-78.688-78.688zM522.914 225.184c-43.34 0-78.688 35.35-78.688 78.688 0 43.34 35.346 78.69 78.688 78.69s78.688-35.35 78.688-78.69c0-43.338-35.35-78.688-78.688-78.688zM633.11 342.594c-43.34 0-78.688 35.346-78.688 78.688 0 43.336 35.346 78.688 78.688 78.688s78.69-35.35 78.69-78.688c0-43.34-35.348-78.688-78.69-78.688z" />
<glyph unicode="&#xe639;" d="M478.464 456.408c0 10.566-1.954 22.096-8.086 30.958-12.302 17.754-38.718 23.402-57.106 12.212-9.292-5.656-14.454-15.54-17.372-25.684-5.784-20.142-3.136-43.132 0.912-63.366 1.29-6.47 2.628-12.95 4.442-19.298 0.658-2.292 0.962-5.62 2.45-7.53 2.6-3.334 8.948-4.296 12.844-3.64 11.678 1.962 8.79 21.198 8.39 29.376-0.93 19.158-6.578 37.752-1.11 56.806 2.316 8.064 6.794 17.13 14.934 20.634 7.35 3.164 14.768-0.708 17.678-7.886 4.712-11.624 3.538-25.050 6.494-37.15 1.006-4.11 2.108-8.18 3.96-12.014 0.538-1.108 1.28-3.41 2.836-3.274 3.786 0.348 9.164 6.664 12 9.006 9.17 7.576 18.582 15.684 29.136 21.292 4.968 2.638 13.134 6.906 18.208 2.424 1.292-1.144 2.334-2.512 3.26-3.96 5.958-9.336 0.042-16.608-3.834-25.492-5.016-11.492-10.158-22.872-17.426-33.138-6.25-8.832-14.786-16.574-19.782-26.222-3.212-6.214-5.032-13.018-3.704-20.028 1.080-5.668 5.472-9.096 11.254-7.762 4.33 0.992 7.262 4.706 9.726 8.128 4.398 6.11 8.484 12.444 12.85 18.572 8.456 11.858 18.434 22.94 25.544 35.69 8.57 15.366 12.7 32.752 12.696 50.252-0.004 14.304-5.192 36.164-21.85 39.162-3.136 0.56-6.718 0.252-9.83-0.288-3.87-0.674-7.758-1.932-11.286-3.644-9.478-4.584-17.664-11.43-24.708-19.21-4.388-4.852-8.32-10.95-13.53-14.93l0.010 0.004zM336.798 184.946c-5.174-0.58-9.078-3.282-12.484-7.124-2.344-2.646-4.572-5.038-5.92-8.378-7.43-18.376 12.376-35.73 26.054-44.408 15.224-9.658 31.852-16.814 48.798-22.846 38.212-13.6 83.034-22.306 122.718-10.148 11.798 3.612 23.46 10.218 32.034 19.14 4.834 5.032 8.148 12.644-0.714 15.866-5.25 1.902-11.624-2.946-16.392-4.868-11.24-4.536-22.89-7.97-34.96-9.43-15.894-1.928-30.202 1.57-45.52 5.404-13.082 3.266-26.31 6.538-38.964 11.256-10.788 4.022-21.51 8.804-30.952 15.484-2.826 1.998-6.204 3.776-8.516 6.376-7.558 8.508-13.24 18.46-21.346 26.552-3.502 3.498-8.48 7.724-13.838 7.126l0.002-0.002zM329.516 253.052l-0.008 0.004c3.444 0.454 8.71 0.88 12.016-0.252 7.104-2.44 12.728-10.328 18.21-15.152 9.004-7.932 18.644-15.056 29.134-20.914 26.686-14.886 59.316-24.322 89.95-25.074 11.684-0.286 23.34-0.12 34.96 1.502 4.912 0.678 12.432 3.59 17.12 1.386 10.732-5.048 14.208-27.764 2.186-33.388-4.25-1.986-9.972-2.332-14.568-3.1-12.572-2.094-25.524-2.998-38.234-2.126-44.218 3.032-85.336 17.848-121.63 43.526-13.018 9.214-26.062 19.664-35.974 32.252-3.418 4.348-10.57 13.934-4.078 18.706 3.112 2.286 7.282 2.152 10.916 2.63v0zM348.092 333.894c-14.292-2.048-18.45-13.502-15.804-26.426 3.378-16.544 16.39-29.158 29.276-39.094 33.020-25.452 75.67-39.216 117.256-37.394 16.226 0.708 33.904 3.392 48.798 10.278 7.984 3.688 16.34 16.986 5.466 22.678-1.49 0.778-3.44 1.26-5.098 1.532-4.752 0.778-10.064-1.246-14.566-2.534-7.936-2.28-15.866-4.612-24.036-5.922-24.408-3.924-50.806 1.656-71.012 16.12-16.334 11.69-29.55 27.118-42.022 42.71-7.64 9.546-14.536 20.022-28.258 18.054v-0.002zM462.806 810.216l-0.004-0.002c8.242 1.080 17.23 0.166 25.494-0.198 14.874-0.652 29.65-1.914 44.424-3.97 31.512-4.388 61.944-10.472 91.044-23.828 73.322-33.666 119.496-103.65 146.408-177.24 8.834-24.14 18.208-49.742 21.362-75.376 2.502-20.268 0.686-41.126-4.782-60.814-15.3-55.052-55.148-101.31-99.626-135.596-22.072-17.016-48.302-28.726-67.72-49.036-19.094-19.966-29.746-45.638-30.952-73.194-0.658-14.924 1.464-29.728 3.772-44.43 1.128-7.174 2.298-15.076 0.348-22.21-1.14-4.166-4.23-7.736-8.876-7.508-4.448 0.212-12.4 2.238-15.314 5.914-1.556 1.966-1.656 6.104-2.206 8.51-1.854 8.044-2.902 16.242-4.062 24.396-5.676 39.8-0.5 82.706 18.782 118.354 7.164 13.24 16.594 25.656 27.928 35.586 9.842 8.614 21.58 15.3 32.046 23.182 18.75 14.122 36.764 29.656 52.774 46.842 23.39 25.11 43.746 54.604 51.506 88.492 4.474 19.532 2.5 39.378-0.392 58.992-6.152 41.778-18.928 81.55-43.080 116.532-6.176 8.95-13.438 17.092-21.112 24.762-53.944 53.946-133.972 67.326-207.21 62.304-26.098-1.788-54.346-3.986-79.022-13.298-20.956-7.914-35.494-24.388-48.274-42.088-5.476-7.576-14.136-21.302-25.284-19.552-7.252 1.13-9.082 11.832-9.93 17.732-2.618 18.262-1.37 37.082 0.4 55.356 0.462 4.736 1.052 9.466 1.49 14.2 0.158 1.686 0.024 4.636 1.326 5.898 2.506 2.416 7.25 3.622 10.358 5.122 8.358 4.050 16.868 7.892 25.492 11.344 23.686 9.478 47.906 17.336 73.194 21.24 13.204 2.036 26.558 1.856 39.698 3.582v0zM478.464 456.408v0 0 0zM336.798 184.946v0 0 0zM329.516 253.052v0 0 0zM348.092 333.894v0 0 0zM462.806 810.216v0 0z" />
<glyph unicode="&#xe63a;" d="M279.248 756.060h172.41v-178.884h120.69v178.884h172.414v-590.518h-172.414v234.91h-120.69v-234.91h-172.41z" />
<glyph unicode="&#xe63b;" d="M470.262 251.592l-117.432 96.202c-22.126-6.818-45.374-7.802-67.558-3.334l169.928-169.91c13.846-13.854 36.3-13.854 50.14 0l172.982 172.974c13.86 13.848 13.86 36.3 0 50.146l-8.892 8.892-184.186-155.202c-7.878-6.376-14.982 0.232-14.982 0.232zM442.174 434.132l27.528-36.462c0 0 8.1-11.888 17.258 0.816l79.722 110.834-61.34 61.342c-13.84 13.84-36.294 13.84-50.14 0l-23.744-23.742c20.216-35.2 23.23-76.368 10.716-112.788zM765.996 756.024l-279.382-383.526c-8.004-8.93-15.064-4.232-17.844-0.912-0.954 1.126-19.976 26.032-44.578 58.294 14.67 33.57 13.668 72.712-3.894 105.876-4.136 7.8-9.176 15.274-15.152 22.262-43.774 51.148-120.714 57.162-171.856 13.384-51.162-43.76-57.148-120.7-13.384-171.856 14.714-17.204 33.18-29.28 53.158-36.092 26.688-9.1 56.078-8.79 82.818 1.384l114.854-92.376c0 0 6.28-5.834 13.218-0.2l363.262 306.538v177.22l-81.22 0.004z" />
<glyph unicode="&#xe63c;" d="M511.312 855.328v0c-188.238 0-341.94-50.61-341.94-113.446 0-16.554 41.050-253.86 57.33-347.97 7.302-42.206 116.372-104.092 284.524-104.092l0.172 0.504v-0.504c168.15 0 277.222 61.882 284.524 104.092 16.282 94.112 57.332 331.416 57.332 347.97 0 62.834-153.704 113.446-341.942 113.446zM511.312 366.058c-60.032 0-108.696 48.672-108.696 108.696 0 60.040 48.664 108.7 108.696 108.7s108.696-48.662 108.696-108.7c0-60.024-48.664-108.696-108.696-108.696zM511.25 706.818c-120.944 0.194-218.948 21.208-218.914 46.944 0.042 25.74 98.128 46.438 219.066 46.24 120.94-0.198 218.948-21.204 218.906-46.944-0.038-25.742-98.116-46.432-219.058-46.24zM757.076 299.586c-5.2 0-9.364-3.68-9.364-3.68s-84.21-66.68-236.404-66.684c-152.192 0.004-236.404 66.684-236.404 66.684s-4.166 3.68-9.362 3.68c-6.208 0-12.096-4.17-12.096-13.374 0-0.974 0.092-1.942 0.272-2.894 13.070-69.95 22.618-119.582 24.3-127.136 11.408-51.458 112.058-90.284 233.28-90.29v0h0.020c121.224 0.008 221.872 38.834 233.28 90.29 1.682 7.556 11.23 57.186 24.3 127.136 0.18 0.952 0.272 1.92 0.272 2.894 0.002 9.204-5.888 13.374-12.094 13.374z" />
<glyph unicode="&#xe63d;" d="M0 228v398.286h187.429v163.429h116.571v-561.714h-304zM117.143 321.714h70.286v210.857h-70.286v-210.857zM350.857 228h117.143v398.286h-117.143v-398.286zM350.857 673.143h117.143v116.571h-117.143v-116.571zM514.857 88v93.143h187.429v46.857h-187.429v398.286h304.571v-538.286h-304.571zM632 321.714h70.286v210.857h-70.286v-210.857zM866.286 88v93.143h186.857v46.857h-186.857v398.286h304v-538.286h-304zM982.857 321.714h70.286v210.857h-70.286v-210.857z" horiz-adv-x="1170" />
<glyph unicode="&#xe63e;" d="M9.143 694.857q0 68.571 48.571 116l84 83.429q47.429 47.429 116 47.429 69.143 0 116.571-48.571l117.714-118.286q47.429-47.429 47.429-116 0-70.286-50.286-119.429l50.286-50.286q49.143 50.286 118.857 50.286 68.571 0 116.571-48l118.857-118.857q48-48 48-116.571t-48.571-116l-84-83.429q-47.429-47.429-116-47.429-69.143 0-116.571 48.571l-117.714 118.286q-47.429 47.429-47.429 116 0 70.286 50.286 119.429l-50.286 50.286q-49.143-50.286-118.857-50.286-68.571 0-116.571 48l-118.857 118.857q-48 48-48 116.571zM118.857 694.857q0-22.857 16-38.857l118.857-118.857q15.429-15.429 38.857-15.429 24 0 41.143 17.714-1.714 1.714-10.857 10.571t-12.286 12.286-8.571 10.857-7.429 14.571-2 15.714q0 22.857 16 38.857t38.857 16q8.571 0 15.714-2t14.571-7.429 10.857-8.571 12.286-12.286 10.571-10.857q18.857 17.714 18.857 41.714 0 22.857-16 38.857l-117.714 118.286q-16 16-38.857 16-22.286 0-38.857-15.429l-84-83.429q-16-16-16-38.286zM520.571 292q0-22.857 16-38.857l117.714-118.286q15.429-15.429 38.857-15.429 22.857 0 38.857 14.857l84 83.429q16 16 16 38.286 0 22.857-16 38.857l-118.857 118.857q-16 16-38.857 16-24 0-41.143-18.286 1.714-1.714 10.857-10.571t12.286-12.286 8.571-10.857 7.429-14.571 2-15.714q0-22.857-16-38.857t-38.857-16q-8.571 0-15.714 2t-14.571 7.429-10.857 8.571-12.286 12.286-10.571 10.857q-18.857-17.714-18.857-41.714z" horiz-adv-x="951" />
<glyph unicode="&#xe63f;" d="M0 0v731.429q0 29.714 21.714 51.429t51.429 21.714h73.143v54.857q0 37.714 26.857 64.571t64.571 26.857h36.571q37.714 0 64.571-26.857t26.857-64.571v-54.857h219.429v54.857q0 37.714 26.857 64.571t64.571 26.857h36.571q37.714 0 64.571-26.857t26.857-64.571v-54.857h73.143q29.714 0 51.429-21.714t21.714-51.429v-731.429q0-29.714-21.714-51.429t-51.429-21.714h-804.571q-29.714 0-51.429 21.714t-21.714 51.429zM73.143 0h804.571v585.143h-804.571v-585.143zM219.429 694.857q0-8 5.143-13.143t13.143-5.143h36.571q8 0 13.143 5.143t5.143 13.143v164.571q0 8-5.143 13.143t-13.143 5.143h-36.571q-8 0-13.143-5.143t-5.143-13.143v-164.571zM658.286 694.857q0-8 5.143-13.143t13.143-5.143h36.571q8 0 13.143 5.143t5.143 13.143v164.571q0 8-5.143 13.143t-13.143 5.143h-36.571q-8 0-13.143-5.143t-5.143-13.143v-164.571z" horiz-adv-x="951" />
<glyph unicode="&#xe640;" d="M0 0v731.429q0 29.714 21.714 51.429t51.429 21.714h73.143v54.857q0 37.714 26.857 64.571t64.571 26.857h36.571q37.714 0 64.571-26.857t26.857-64.571v-54.857h219.429v54.857q0 37.714 26.857 64.571t64.571 26.857h36.571q37.714 0 64.571-26.857t26.857-64.571v-54.857h73.143q29.714 0 51.429-21.714t21.714-51.429v-731.429q0-29.714-21.714-51.429t-51.429-21.714h-804.571q-29.714 0-51.429 21.714t-21.714 51.429zM73.143 0h164.571v164.571h-164.571v-164.571zM73.143 201.143h164.571v182.857h-164.571v-182.857zM73.143 420.571h164.571v164.571h-164.571v-164.571zM219.429 694.857q0-7.429 5.429-12.857t12.857-5.429h36.571q7.429 0 12.857 5.429t5.429 12.857v164.571q0 7.429-5.429 12.857t-12.857 5.429h-36.571q-7.429 0-12.857-5.429t-5.429-12.857v-164.571zM274.286 0h182.857v164.571h-182.857v-164.571zM274.286 201.143h182.857v182.857h-182.857v-182.857zM274.286 420.571h182.857v164.571h-182.857v-164.571zM493.714 0h182.857v164.571h-182.857v-164.571zM493.714 201.143h182.857v182.857h-182.857v-182.857zM493.714 420.571h182.857v164.571h-182.857v-164.571zM658.286 694.857q0-7.429 5.429-12.857t12.857-5.429h36.571q7.429 0 12.857 5.429t5.429 12.857v164.571q0 7.429-5.429 12.857t-12.857 5.429h-36.571q-7.429 0-12.857-5.429t-5.429-12.857v-164.571zM713.143 0h164.571v164.571h-164.571v-164.571zM713.143 201.143h164.571v182.857h-164.571v-182.857zM713.143 420.571h164.571v164.571h-164.571v-164.571z" horiz-adv-x="951" />
<glyph unicode="&#xe641;" d="M0 438.857q0 119.429 58.857 220.286t159.714 159.714 220.286 58.857 220.286-58.857 159.714-159.714 58.857-220.286-58.857-220.286-159.714-159.714-220.286-58.857-220.286 58.857-159.714 159.714-58.857 220.286zM128 438.857q0-84.571 41.714-156t113.143-113.143 156-41.714 156 41.714 113.143 113.143 41.714 156-41.714 156-113.143 113.143-156 41.714-156-41.714-113.143-113.143-41.714-156zM292.571 384v36.571q0 8 5.143 13.143t13.143 5.143h128v201.143q0 8 5.143 13.143t13.143 5.143h36.571q8 0 13.143-5.143t5.143-13.143v-256q0-8-5.143-13.143t-13.143-5.143h-182.857q-8 0-13.143 5.143t-5.143 13.143z" />
<glyph unicode="&#xe642;" d="M387.429 40.571q0-21.714-5.714-40.571h-217.143q-54.286 0-98 32.286t-59.143 84.286q13.714 25.714 39.429 44.286t57.143 28.286 61.143 13.714 61.143 4q18.286 0 28-1.143 3.429-2.286 17.429-12t18.857-13.143 17.714-13.143 18.286-14.571 15.714-14.571 15.143-16.857 12-17.429 10-19.714 5.429-20.571 2.571-23.143zM220 241.143q-133.714-4-220-48.571v247.429q58.857-67.429 156-67.429 18.286 0 40 2.857-12-34.857-12-49.143 0-38.286 36-85.143zM318.857 533.143q0-57.143-24.857-91.714t-80.286-34.571q-29.143 0-55.429 14.857t-44.571 38.571-32 53.429-20.286 59.429-6.571 56.571q0 54.857 29.429 94.286t82.571 39.429q37.714 0 68-23.429t48-59.429 26.857-74.286 9.143-73.143zM877.714 585.143v-420.571q0-68-48.286-116.286t-116.286-48.286h-267.429q22.286 41.714 22.286 89.714 0 37.714-12.571 70t-31.714 53.143-41.143 40.571-41.143 34-31.714 31.143-12.571 34q0 20.571 13.143 38.857t32 35.143 37.429 36.857 31.714 53.143 13.143 74.857-15.143 83.143-43.143 67.714q-3.429 3.429-8 6.286t-7.143 4.286-5.714 5.429-6 9.714h77.143l77.143 36.571h-249.714q-78.857 0-139.714-22t-104.286-76.286q0 72 46.286 121.714t118.286 49.714h548.571q68 0 116.286-48.286t48.286-116.286v-54.857h-146.286v146.286h-73.143v-146.286h-146.286v-73.143h146.286v-146.286h73.143v146.286h146.286z" horiz-adv-x="878" />
<glyph unicode="&#xe643;" d="M525.143 206.286v89.714q0 28.571-16.571 28.571-9.714 0-18.857-9.143v-128q9.143-9.143 18.857-9.143 16.571 0 16.571 28zM630.286 276h37.714v19.429q0 29.143-18.857 29.143t-18.857-29.143v-19.429zM304 428v-40h-45.714v-241.714h-42.286v241.714h-44.571v40h132.571zM418.857 356v-209.714h-38.286v22.857q-22.286-25.714-43.429-25.714-18.857 0-24 16-3.429 9.143-3.429 30.857v165.714h37.714v-154.286q0-13.714 0.571-14.857 0.571-8.571 8.571-8.571 11.429 0 24 17.714v160h38.286zM562.857 292.571v-83.429q0-29.714-4-41.714-6.857-24-30.286-24-20 0-38.857 23.429v-20.571h-38.286v281.714h38.286v-92q18.286 22.857 38.857 22.857 23.429 0 30.286-24 4-12 4-42.286zM706.286 218.857v-5.143q0-16.571-1.143-24.571-1.714-12.571-8.571-22.857-15.429-22.857-45.714-22.857-29.714 0-46.286 21.714-12 15.429-12 49.143v73.714q0 33.714 11.429 49.143 16.571 21.714 45.714 21.714t44.571-21.714q12-16 12-49.143v-43.429h-76v-37.143q0-29.143 19.429-29.143 13.714 0 17.143 14.857 0 0.571 0.286 4t0.286 9.429v12.286h38.857zM448.571 689.714v-89.143q0-29.143-18.286-29.143t-18.286 29.143v89.143q0 29.714 18.286 29.714t18.286-29.714zM753.143 282.286q0 101.143-10.857 148.571-5.714 25.143-24.571 42t-43.429 19.714q-77.714 8.571-235.429 8.571-157.143 0-234.857-8.571-25.143-2.857-43.714-19.714t-24.286-42q-11.429-49.714-11.429-148.571 0-100.571 11.429-148.571 5.714-24.571 24.286-41.714t43.143-20q78.286-8.571 235.429-8.571t235.429 8.571q24.571 2.857 43.143 20t24.286 41.714q11.429 48 11.429 148.571zM321.714 654.286l51.429 169.143h-42.857l-29.143-111.429-30.286 111.429h-44.571l13.714-39.429t13.143-39.429q20-58.857 26.286-90.286v-114.857h42.286v114.857zM486.857 608v74.286q0 33.143-12 49.714-16.571 21.714-44.571 21.714-29.143 0-44.571-21.714-12-16.571-12-49.714v-74.286q0-33.143 12-49.714 15.429-21.714 44.571-21.714 28 0 44.571 21.714 12 15.429 12 49.714zM590.286 539.428h38.286v211.429h-38.286v-161.714q-12.571-17.714-24-17.714-8.571 0-9.143 9.143-0.571 1.143-0.571 14.857v155.429h-38.286v-167.429q0-21.143 3.429-31.429 6.286-15.429 24.571-15.429 20.571 0 44 25.714v-22.857zM877.714 713.143v-548.571q0-68-48.286-116.286t-116.286-48.286h-548.571q-68 0-116.286 48.286t-48.286 116.286v548.571q0 68 48.286 116.286t116.286 48.286h548.571q68 0 116.286-48.286t48.286-116.286z" horiz-adv-x="878" />
<glyph unicode="&#xe644;" d="M554.857 240v-120.571q0-38.286-22.286-38.286-13.143 0-25.714 12.571v172q12.571 12.571 25.714 12.571 22.286 0 22.286-38.286zM748 239.428v-26.286h-51.429v26.286q0 38.857 25.714 38.857t25.714-38.857zM196 364h61.143v53.714h-178.286v-53.714h60v-325.143h57.143v325.143zM360.571 38.857h50.857v282.286h-50.857v-216q-17.143-24-32.571-24-10.286 0-12 12-0.571 1.714-0.571 20v208h-50.857v-223.429q0-28 4.571-41.714 6.857-21.143 33.143-21.143 27.429 0 58.286 34.857v-30.857zM605.714 123.428v112.571q0 41.714-5.143 56.571-9.714 32-40.571 32-28.571 0-53.143-30.857v124h-50.857v-378.857h50.857v27.429q25.714-31.429 53.143-31.429 30.857 0 40.571 31.429 5.143 15.429 5.143 57.143zM798.857 129.143v7.429h-52q0-29.143-1.143-34.857-4-20.571-22.857-20.571-26.286 0-26.286 39.429v49.714h102.286v58.857q0 45.143-15.429 66.286-22.286 29.143-60.571 29.143-38.857 0-61.143-29.143-16-21.143-16-66.286v-98.857q0-45.143 16.571-66.286 22.286-29.143 61.714-29.143 41.143 0 61.714 30.286 10.286 15.429 12 30.857 1.143 5.143 1.143 33.143zM451.429 650.857v120q0 39.429-24.571 39.429t-24.571-39.429v-120q0-40 24.571-40t24.571 40zM862.286 221.714q0-133.714-14.857-200-8-33.714-33.143-56.571t-58.286-26.286q-105.143-12-317.143-12t-317.143 12q-33.143 3.429-58.571 26.286t-32.857 56.571q-14.857 64-14.857 200 0 133.714 14.857 200 8 33.714 33.143 56.571t58.857 26.857q104.571 11.429 316.571 11.429t317.143-11.429q33.143-4 58.571-26.857t32.857-56.571q14.857-64 14.857-200zM292 950.857h58.286l-69.143-228v-154.857h-57.143v154.857q-8 42.286-34.857 121.143-21.143 58.857-37.143 106.857h60.571l40.571-150.286zM503.429 760.571v-100q0-46.286-16-67.429-21.143-29.143-60.571-29.143-38.286 0-60 29.143-16 21.714-16 67.429v100q0 45.714 16 66.857 21.714 29.143 60 29.143 39.429 0 60.571-29.143 16-21.143 16-66.857zM694.857 853.143v-285.143h-52v31.429q-30.286-35.429-58.857-35.429-26.286 0-33.714 21.143-4.571 13.714-4.571 42.857v225.143h52v-209.714q0-18.857 0.571-20 1.714-12.571 12-12.571 15.429 0 32.571 24.571v217.714h52z" horiz-adv-x="878" />
<glyph unicode="&#xe645;" d="M341.143 569.714q-5.714-10.286-146.857-260.571-15.429-26.286-37.143-26.286h-136.571q-12 0-17.714 9.714t0 20.571l144.571 256q0.571 0 0 0.571l-92 159.429q-6.857 12.571-0.571 21.143 5.143 8.571 18.286 8.571h136.571q22.857 0 37.714-25.714zM801.714 936.571q6.286-9.143 0-21.143l-301.714-533.714v-0.571l192-351.429q6.286-11.429 0.571-21.143-5.714-8.571-18.286-8.571h-136.571q-24 0-37.714 25.714l-193.714 355.429q10.286 18.286 303.429 538.286 14.286 25.714 36.571 25.714h137.714q12.571 0 17.714-8.571z" horiz-adv-x="805" />
<glyph unicode="&#xe646;" d="M391.429 513.714q0 0.571-72 126.857-12 19.429-29.714 19.429h-105.143q-10.286 0-14.857-6.286-4-6.857 0.571-16.571l71.429-123.429v-0.571l-112-197.714q-5.143-8 0-16 4.571-7.429 13.714-7.429h105.714q17.714 0 28.571 20.571zM748 797.714q-4 6.857-13.714 6.857h-106.857q-17.143 0-28-20l-234.857-416.571q0.571-1.143 149.714-274.857 11.429-20 29.714-20h105.143q10.286 0 14.286 6.857 4.571 7.429-0.571 16l-148.571 272v0.571l233.714 413.143q4.571 9.143 0 16zM877.714 713.143v-548.571q0-68-48.286-116.286t-116.286-48.286h-548.571q-68 0-116.286 48.286t-48.286 116.286v548.571q0 68 48.286 116.286t116.286 48.286h548.571q68 0 116.286-48.286t48.286-116.286z" horiz-adv-x="878" />
<glyph unicode="&#xe647;" d="M135.429 142.857h132v396.571h-132v-396.571zM276 661.714q-0.571 29.714-20.571 49.143t-53.143 19.429-54-19.429-20.857-49.143q0-29.143 20.286-48.857t52.857-19.714h0.571q33.714 0 54.286 19.714t20.571 48.857zM610.286 142.857h132v227.429q0 88-41.714 133.143t-110.286 45.143q-77.714 0-119.429-66.857h1.143v57.714h-132q1.714-37.714 0-396.571h132v221.714q0 21.714 4 32 8.571 20 25.714 34t42.286 14q66.286 0 66.286-89.714v-212zM877.714 713.143v-548.571q0-68-48.286-116.286t-116.286-48.286h-548.571q-68 0-116.286 48.286t-48.286 116.286v548.571q0 68 48.286 116.286t116.286 48.286h548.571q68 0 116.286-48.286t48.286-116.286z" horiz-adv-x="878" />
<glyph unicode="&#xe648;" d="M199.429 593.714v-566.286h-188.571v566.286h188.571zM211.429 768.571q0.571-41.714-28.857-69.714t-77.429-28h-1.143q-46.857 0-75.429 28t-28.571 69.714q0 42.286 29.429 70t76.857 27.714 76-27.714 29.143-70zM877.714 352v-324.571h-188v302.857q0 60-23.143 94t-72.286 34q-36 0-60.286-19.714t-36.286-48.857q-6.286-17.143-6.286-46.286v-316h-188q1.143 228 1.143 369.714t-0.571 169.143l-0.571 27.429h188v-82.286h-1.143q11.429 18.286 23.429 32t32.286 29.714 49.714 24.857 65.429 8.857q97.714 0 157.143-64.857t59.429-190z" horiz-adv-x="878" />
<glyph unicode="&#xe649;" d="M950.857 91.428v438.857q-18.286-20.571-39.429-37.714-153.143-117.714-243.429-193.143-29.143-24.571-47.429-38.286t-49.429-27.714-58.571-14h-1.143q-27.429 0-58.571 14t-49.429 27.714-47.429 38.286q-90.286 75.429-243.429 193.143-21.143 17.143-39.429 37.714v-438.857q0-7.429 5.429-12.857t12.857-5.429h841.143q7.429 0 12.857 5.429t5.429 12.857zM950.857 692v14t-0.286 7.429-1.714 7.143-3.143 5.143-5.143 4.286-8 1.429h-841.143q-7.429 0-12.857-5.429t-5.429-12.857q0-96 84-162.286 110.286-86.857 229.143-181.143 3.429-2.857 20-16.857t26.286-21.429 25.429-18 28.857-15.714 24.571-5.143h1.142q11.429 0 24.571 5.143t28.857 15.714 25.429 18 26.286 21.429 20 16.857q118.857 94.286 229.143 181.143 30.857 24.571 57.429 66t26.571 75.143zM1024 713.143v-621.714q0-37.714-26.857-64.571t-64.571-26.857h-841.143q-37.714 0-64.571 26.857t-26.857 64.571v621.714q0 37.714 26.857 64.571t64.571 26.857h841.143q37.714 0 64.571-26.857t26.857-64.571z" />
<glyph unicode="&#xe64a;" d="M925.714 717.714q-38.286-56-92.571-95.429 0.571-8 0.571-24 0-74.286-21.714-148.286t-66-142-105.429-120.286-147.429-83.429-184.571-31.143q-154.857 0-283.429 82.857 20-2.286 44.571-2.286 128.571 0 229.143 78.857-60 1.143-107.429 36.857t-65.143 91.143q18.857-2.857 34.857-2.857 24.571 0 48.571 6.286-64 13.143-106 63.714t-42 117.429v2.286q38.857-21.714 83.429-23.429-37.714 25.143-60 65.714t-22.286 88q0 50.286 25.143 93.143 69.143-85.143 168.286-136.286t212.286-56.857q-4.571 21.714-4.571 42.286 0 76.571 54 130.571t130.571 54q80 0 134.857-58.286 62.286 12 117.143 44.571-21.143-65.714-81.143-101.714 53.143 5.714 106.286 28.571z" horiz-adv-x="951" />
<glyph unicode="&#xe64b;" d="M292 633.143h146.857l-17.143-162.286h-129.714v-470.857h-194.857v470.857h-97.143v162.286h97.143v97.714q0 104 49.143 157.429t161.714 53.429h129.714v-162.286h-81.143q-22.286 0-35.714-3.714t-19.429-13.429-7.714-19.714-1.714-28.286v-81.143z" horiz-adv-x="439" />
<glyph unicode="&#xe64c;" d="M877.714 438.857q0-119.429-58.857-220.286t-159.714-159.714-220.286-58.857q-63.429 0-124.571 18.286 33.714 53.143 44.571 93.714 5.143 19.429 30.857 120.571 11.429-22.286 41.714-38.571t65.143-16.286q69.143 0 123.429 39.143t84 107.714 29.714 154.286q0 65.143-34 122.286t-98.571 93.143-145.714 36q-60 0-112-16.571t-88.286-44-62.286-63.143-38.286-74-12.286-76.571q0-59.429 22.857-104.571t66.857-63.429q17.143-6.857 21.714 11.429 1.143 4 4.571 17.714t4.571 17.143q3.429 13.143-6.286 24.571-29.143 34.857-29.143 86.286 0 86.286 59.714 148.286t156.286 62q86.286 0 134.571-46.857t48.286-121.714q0-97.143-39.143-165.143t-100.286-68q-34.857 0-56 24.857t-13.143 59.714q4.571 20 15.143 53.429t17.143 58.857 6.571 43.143q0 28.571-15.429 47.429t-44 18.857q-35.429 0-60-32.571t-24.571-81.143q0-41.714 14.286-69.714l-56.571-238.857q-9.714-40-7.429-101.143-117.714 52-190.286 160.571t-72.571 241.714q0 119.429 58.857 220.286t159.714 159.714 220.286 58.857 220.286-58.857 159.714-159.714 58.857-220.286z" horiz-adv-x="878" />
<glyph unicode="&#xe64d;" d="M713.143 877.714q68 0 116.286-48.286t48.286-116.286v-548.571q0-68-48.286-116.286t-116.286-48.286h-414.286q48.571 69.714 61.714 120 5.143 19.429 30.286 119.429 12-22.286 42-38.286t64.286-16q103.429 0 168.857 84.286t65.429 213.429q0 48-20 92.857t-55.143 79.429-87.143 55.429-112.571 20.857q-59.429 0-111.143-16.286t-87.429-43.714-61.429-62.571-38-73.143-12.286-75.714q0-58.286 22.571-102.857t66.571-62.857q7.429-2.857 13.429 0t8.286 10.857q5.714 25.143 8.571 34.857 3.429 13.143-6.286 24-28.571 35.429-28.571 85.714 0 85.714 59.143 146.571t154.571 60.857q85.143 0 132.857-46.286t47.714-120q0-96-38.571-163.429t-99.143-67.429q-34.286 0-55.429 24.857t-13.143 59.143q4.571 19.429 15.143 52.857t16.857 58.286 6.286 42.571q0 28-15.143 46.571t-43.143 18.571q-34.857 0-59.143-32.286t-24.286-79.714q0-41.143 13.714-69.143l-56-236.571q-13.714-57.143-4-145.143h-104.571q-68 0-116.286 48.286t-48.286 116.286v548.571q0 68 48.286 116.286t116.286 48.286h548.571z" horiz-adv-x="878" />
<glyph unicode="&#xe64e;" d="M641.714 145.714v103.429q-50.286-32-99.429-32-29.143 0-50.286 13.143-16.571 9.714-22.286 25.714-6.286 17.143-6.286 73.714v168.571h156.571v103.429h-156.571v166.286h-93.714q-6.286-51.429-22.857-84t-44.571-56.571q-27.429-22.857-66.286-36v-93.143h72.571v-230.857q0-44.571 9.714-69.143 9.714-24 33.714-44.571 24.571-21.143 59.429-32.571 35.429-11.429 80-11.429 38.286 0 73.714 8 32.571 7.429 76.571 28zM877.714 713.143v-548.571q0-68-48.286-116.286t-116.286-48.286h-548.571q-68 0-116.286 48.286t-48.286 116.286v548.571q0 68 48.286 116.286t116.286 48.286h548.571q68 0 116.286-48.286t48.286-116.286z" horiz-adv-x="878" />
<glyph unicode="&#xe64f;" d="M222.857 877.714h125.143v-221.714h208v-137.714h-208v-225.143q0-77.714 8-98.286 7.429-21.143 29.714-34.286 28.571-17.714 66.857-17.714 66.857 0 132.571 43.429v-138.286q-58.286-27.429-101.714-37.143-44-10.857-98.857-10.857-60 0-106.286 15.429-44.571 14.286-78.857 42.857-33.143 29.143-45.143 60-12.571 30.857-12.571 92v308h-97.143v124q52 17.143 88.571 48 36.571 31.429 58.857 75.429t30.857 112z" horiz-adv-x="585" />
<glyph unicode="&#xe650;" d="M928 832h-832c-53.024 0-96-42.976-96-96v-576c0-52.992 42.976-96 96-96h832c53.024 0 96 43.008 96 96v576c0 53.024-42.976 96-96 96zM87.712 128.32l-23.392 23.424 263.968 263.936 23.392-23.424-263.968-263.936zM936.288 128.32l-263.968 263.936 23.392 23.424 263.968-263.936-23.392-23.424zM544 341.6v-21.6h-64v21.6l-415.904 385.6 40.704 40.704 407.2-377.536 407.2 377.536 40.704-40.704-415.904-385.6z" />
<glyph unicode="&#xe651;" d="M512 960c-282.77 0-512-229.23-512-512s229.23-512 512-512 512 229.23 512 512-229.23 512-512 512zM256 704h512c9.138 0 18.004-1.962 26.144-5.662l-282.144-329.168-282.144 329.17c8.14 3.696 17.006 5.66 26.144 5.66zM192 256v384c0 1.34 0.056 2.672 0.14 4l187.664-218.942-185.598-185.598c-1.444 5.336-2.206 10.886-2.206 16.54zM768 192h-512c-5.654 0-11.202 0.762-16.54 2.208l182.118 182.118 90.422-105.498 90.424 105.494 182.116-182.12c-5.34-1.44-10.886-2.202-16.54-2.202zM832 256c0-5.654-0.762-11.2-2.206-16.54l-185.6 185.598 187.666 218.942c0.084-1.328 0.14-2.66 0.14-4v-384z" />
<glyph unicode="&#xe652;" d="M853.342 960h-682.656c-93.874 0-170.686-76.81-170.686-170.69v-682.622c0-93.938 76.812-170.688 170.686-170.688h682.656c93.876 0 170.658 76.75 170.658 170.69v682.62c0 93.88-76.782 170.69-170.658 170.69zM182.628 73.374l-77.256 77.254 256 256 29.256-29.254-208-304zM153.372 761.372l29.256 29.256 329.372-265.374 329.374 265.374 29.254-29.256-358.628-422.626-358.628 422.626zM841.374 73.374l-208 304 29.254 29.254 256-256-77.254-77.254z" />
<glyph unicode="&#xe653;" d="M853.342 960h-682.656c-93.874 0-170.686-76.81-170.686-170.69v-682.622c0-93.938 76.812-170.688 170.686-170.688h682.656c93.876 0 170.658 76.75 170.658 170.69v682.62c0 93.88-76.782 170.69-170.658 170.69zM853.342 832c7.988 0 15.546-2.334 22.020-6.342l-363.362-300.404-363.354 300.4c6.478 4.010 14.044 6.346 22.040 6.346h682.656zM170.686 64c-1.924 0-3.82 0.146-5.684 0.408l225.626 312.966-29.256 29.254-233.372-233.37v611.138l384-464.396 384 464.394v-611.136l-233.372 233.37-29.254-29.254 225.628-312.968c-1.858-0.26-3.746-0.406-5.662-0.406h-682.654z" />
<glyph unicode="&#xe654;" d="M853.31 960h-682.62c-93.88 0-170.69-76.784-170.69-170.658v-682.656c0-93.876 76.81-170.686 170.69-170.686h682.622c93.938 0 170.688 76.81 170.688 170.686v682.656c0 93.874-76.75 170.658-170.69 170.658zM256 704h512c9.138 0 18.004-1.962 26.144-5.662l-282.144-329.168-282.144 329.17c8.14 3.696 17.006 5.66 26.144 5.66zM192 256v384c0 1.34 0.056 2.672 0.14 4l187.664-218.94-185.598-185.6c-1.444 5.338-2.206 10.886-2.206 16.54zM768 192h-512c-5.654 0-11.202 0.762-16.54 2.206l182.118 182.118 90.422-105.496 90.424 105.494 182.116-182.118c-5.34-1.442-10.886-2.204-16.54-2.204zM832 256c0-5.654-0.762-11.2-2.206-16.54l-185.598 185.598 187.664 218.942c0.084-1.328 0.14-2.66 0.14-4v-384z" />
<glyph unicode="&#xe655;" d="M928 832h-832c-52.8 0-96-43.2-96-96v-640c0-52.8 43.2-96 96-96h832c52.8 0 96 43.2 96 96v640c0 52.8-43.2 96-96 96zM398.74 409.628l-270.74-210.892v501.642l270.74-290.75zM176.38 704h671.24l-335.62-252-335.62 252zM409.288 398.302l102.712-110.302 102.71 110.302 210.554-270.302h-626.528l210.552 270.302zM625.26 409.628l270.74 290.75v-501.642l-270.74 210.892z" />
<glyph unicode="&#xe656;" d="M768 704h-138c48-32 93-89 107-128h30c65 0 128-64 128-128s-65-128-128-128h-192c-63 0-128 64-128 128 0 23 7 45 18 64h-137c-5-21-8-42-8-64 0-128 127-256 255-256s65 0 193 0 256 128 256 256-128 256-256 256zM287 320h-30c-65 0-128 64-128 128s65 128 128 128h192c63 0 128-64 128-128 0-23-7-45-18-64h137c5 21 8 42 8 64 0 128-127 256-255 256s-65 0-193 0-256-128-256-256 128-256 256-256h138c-48 32-93 89-107 128z" />
<glyph unicode="&#xe657;" d="M192 896v-768h768v768h-768zM896 192h-640v640h640v-640zM128 64v640l-64 64v-768h768l-64 64zM429.254 274.746l192 192 146.746-146.746v384h-384l146.746-146.746-192-192z" />
<glyph unicode="&#xe658;" d="M512 768c-282.784 0-512-320-512-320s229.216-320 512-320 512 320 512 320-229.216 320-512 320zM512 256c-106.016 0-192 85.984-192 192s85.984 192 192 192 192-85.984 192-192-85.984-192-192-192zM512 576c-70.688 0-128-57.312-128-128s57.312-128 128-128 128 57.312 128 128-57.312 128-128 128z" />
<glyph unicode="&#xe659;" d="M512 832c-192 0-416-128-512-384 96-192 288-320 512-320s416 128 512 320c-96 256-320 384-512 384zM512 192c-192 0-352 128-384 256 32 128 192 256 384 256s352-128 384-256c-32-128-192-256-384-256zM512 640c-20 0-38-4-56-9 33-15 56-48 56-87 0-53-43-96-96-96-39 0-72 23-87 56-5-18-9-36-9-56 0-106 86-192 192-192s192 86 192 192-86 192-192 192z" />
<glyph unicode="&#xe65a;" d="M1024 448c0 282.77-229.23 512-512 512s-512-229.23-512-512 229.23-512 512-512 512 229.23 512 512zM96 448c0 229.75 186.25 416 416 416s416-186.25 416-416-186.25-416-416-416-416 186.25-416 416zM557.254 146.744l256 256.002c24.994 24.992 24.994 65.514 0 90.508s-65.516 24.994-90.51 0l-146.744-146.744v357.49c0 35.346-28.654 64-64 64s-64-28.654-64-64v-357.49l-146.744 146.746c-24.994 24.994-65.518 24.994-90.512 0-12.496-12.498-18.744-28.878-18.744-45.256s6.248-32.758 18.744-45.254l256-256.002c24.994-24.992 65.518-24.992 90.51 0z" />
<glyph unicode="&#xe65b;" d="M146.746 338.746l320-320c24.992-24.994 65.516-24.994 90.51 0l320 320c24.992 24.994 24.992 65.516 0 90.51-24.994 24.994-65.516 24.994-90.51 0l-210.746-210.746v613.49c0 35.346-28.654 64-64 64s-64-28.654-64-64v-613.49l-210.746 210.746c-12.496 12.496-28.876 18.744-45.254 18.744s-32.758-6.248-45.254-18.744c-24.994-24.994-24.994-65.516 0-90.51z" />
<glyph unicode="&#xe65c;" d="M512-64l512 512h-320v511.998l-384 0.002v-512h-320z" />
<glyph unicode="&#xe65d;" d="M736 512l-256-256-256 256h160v384h192v-384zM480 256h-480v-256h960v256h-480zM896 128h-128v64h128v-64z" />
<glyph unicode="&#xe65e;" d="M896 448h-160l-224-224-224 224h-160l-128-256v-64h1024v64l-128 256zM0 64h1024v-64h-1024v64zM576 640v256h-128v-256h-224l288-288 288 288h-224z" />
<glyph unicode="&#xe65f;" d="M891.004 599.94c-3.242 128.698-108.458 232.060-237.862 232.060-75.792 0-143.266-35.494-186.854-90.732-24.442 31.598-62.69 51.96-105.708 51.96-73.81 0-133.642-59.874-133.642-133.722 0-6.436 0.48-12.76 1.364-18.954-11.222 2.024-22.766 3.138-34.57 3.138-106.998 0.002-193.732-86.786-193.732-193.842 0-107.062 86.734-193.848 193.73-193.848h99.76l218.51-218.51 218.51 218.51 119.482 0.012c96.138 0.184 174.008 78.212 174.008 174.446 0 82.090-56.678 150.9-132.996 169.482zM512 128l-192 192h128v192h128v-192h128l-192-192z" />
<glyph unicode="&#xe660;" d="M512 384l256 256h-192v256h-128v-256h-192zM744.726 488.728l-71.74-71.742 260.080-96.986-421.066-157.018-421.066 157.018 260.080 96.986-71.742 71.742-279.272-104.728v-256l512-192 512 192v256z" />
<glyph unicode="&#xe661;" d="M832 896h-640l-192-192v-672c0-17.674 14.326-32 32-32h960c17.672 0 32 14.326 32 32v672l-192 192zM512 128l-320 256h192v192h256v-192h192l-320-256zM154.51 768l64 64h586.978l64-64h-714.978z" />
<glyph unicode="&#xe662;" d="M743.028 576h-135.294l-95.732-141.032-95.74 141.032h-135.288l162.162-242.464-182.974-269.536h262.24v91.576h-60.556l50.156 74.994 111.396-166.57h140.442l-182.976 269.536zM903.432 760.57l-142.864 142.862c-31.112 31.112-92.568 56.568-136.568 56.568h-480c-44 0-80-36-80-80v-864c0-44 36-80 80-80h736c44 0 80 36 80 80v608c0 44-25.456 105.458-56.568 136.57zM858.178 715.314c3.13-3.13 6.25-6.974 9.28-11.314h-163.458v163.456c4.34-3.030 8.184-6.15 11.314-9.28l142.864-142.862zM896 16c0-8.672-7.328-16-16-16h-736c-8.672 0-16 7.328-16 16v864c0 8.672 7.328 16 16 16h480c4.832 0 10.254-0.61 16-1.704v-254.296h254.296c1.094-5.746 1.704-11.166 1.704-16v-608z" />
<glyph unicode="&#xe663;" d="M639.778 484.108h44.212l-51.012-226.178-66.326 318.010h-106.55l-77.114-318.010-57.816 318.010h-111.394l113.092-511.882h108.838l76.294 302.708 68.256-302.708h100.336l129.63 511.882h-170.446zM903.432 760.57l-142.864 142.862c-31.112 31.112-92.568 56.568-136.568 56.568h-480c-44 0-80-36-80-80v-864c0-44 36-80 80-80h736c44 0 80 36 80 80v608c0 44-25.456 105.458-56.568 136.57zM858.178 715.314c3.13-3.13 6.25-6.974 9.28-11.314h-163.458v163.456c4.34-3.030 8.184-6.15 11.314-9.28l142.864-142.862zM896 16c0-8.672-7.328-16-16-16h-736c-8.672 0-16 7.328-16 16v864c0 8.672 7.328 16 16 16h480c4.832 0 10.254-0.61 16-1.704v-254.296h254.296c1.094-5.746 1.704-11.166 1.704-16v-608z" />
<glyph unicode="&#xe664;" d="M690.22 488.318c-60.668 28.652-137.972 34.42-194.834-6.048 69.14 6.604 144.958-4.838 195.106-57.124 48 55.080 124.114 65.406 192.958 59.732-57.488 38.144-133.22 33.024-193.23 3.44zM665.648 354.25c-68.378 1.578-134.434-23.172-191.1-60.104-107.176 45.588-242.736 37.124-334.002-38.982 26.33 0.934 52.006 7.446 78.056 10.792 95.182 9.488 196.588-14.142 268.512-79.824 29.772 43.542 71.644 78.242 119.652 99.922 63.074 30.52 134.16 33.684 202.82 34.52-41.688 28.648-94.616 33.954-143.938 33.676zM903.432 760.57l-142.864 142.862c-31.112 31.112-92.568 56.568-136.568 56.568h-480c-44 0-80-36-80-80v-864c0-44 36-80 80-80h736c44 0 80 36 80 80v608c0 44-25.456 105.458-56.568 136.57zM858.178 715.314c3.13-3.13 6.25-6.974 9.28-11.314h-163.458v163.456c4.34-3.030 8.184-6.15 11.314-9.28l142.864-142.862zM896 16c0-8.672-7.328-16-16-16h-736c-8.672 0-16 7.328-16 16v864c0 8.672 7.328 16 16 16h480c4.832 0 10.254-0.61 16-1.704v-254.296h254.296c1.094-5.746 1.704-11.166 1.704-16v-608z" />
<glyph unicode="&#xe665;" d="M842.012 370.52c-13.648 13.446-43.914 20.566-89.972 21.172-31.178 0.344-68.702-2.402-108.17-7.928-17.674 10.198-35.892 21.294-50.188 34.658-38.462 35.916-70.568 85.772-90.576 140.594 1.304 5.12 2.414 9.62 3.448 14.212 0 0 21.666 123.060 15.93 164.666-0.79 5.706-1.274 7.362-2.808 11.796l-1.882 4.834c-5.896 13.592-17.448 27.994-35.566 27.208l-10.916 0.344c-20.2 0-36.664-10.332-40.986-25.774-13.138-48.434 0.418-120.892 24.982-214.738l-6.288-15.286c-17.588-42.876-39.63-86.060-59.078-124.158l-2.528-4.952c-20.46-40.038-39.024-74.026-55.854-102.822l-17.376-9.188c-1.264-0.668-31.044-16.418-38.028-20.644-59.256-35.382-98.522-75.54-105.036-107.416-2.072-10.17-0.53-23.186 10.014-29.214l16.806-8.458c7.29-3.652 14.978-5.502 22.854-5.502 42.204 0 91.2 52.572 158.696 170.366 77.93 25.368 166.654 46.456 244.414 58.090 59.258-33.368 132.142-56.546 178.142-56.546 8.168 0 15.212 0.778 20.932 2.296 8.822 2.336 16.258 7.366 20.792 14.192 8.926 13.432 10.734 31.932 8.312 50.876-0.722 5.624-5.212 12.576-10.070 17.322zM211.646 145.952c7.696 21.042 38.16 62.644 83.204 99.556 2.832 2.296 9.808 8.832 16.194 14.902-47.102-75.124-78.646-105.066-99.398-114.458zM478.434 760.314c13.566 0 21.284-34.194 21.924-66.254s-6.858-54.56-16.158-71.208c-7.702 24.648-11.426 63.5-11.426 88.904 0 0-0.566 48.558 5.66 48.558zM398.852 322.506c9.45 16.916 19.282 34.756 29.33 53.678 24.492 46.316 39.958 82.556 51.478 112.346 22.91-41.684 51.444-77.12 84.986-105.512 4.184-3.542 8.618-7.102 13.274-10.65-68.21-13.496-127.164-29.91-179.068-49.862zM828.904 326.348c-4.154-2.598-16.054-4.1-23.708-4.1-24.706 0-55.272 11.294-98.126 29.666 16.468 1.218 31.562 1.838 45.1 1.838 24.782 0 32.12 0.108 56.35-6.072s24.538-18.734 20.384-21.332zM903.432 760.57l-142.864 142.862c-31.112 31.112-92.568 56.568-136.568 56.568h-480c-44 0-80-36-80-80v-864c0-44 36-80 80-80h736c44 0 80 36 80 80v608c0 44-25.456 105.458-56.568 136.57zM858.178 715.314c3.13-3.13 6.25-6.974 9.28-11.314h-163.458v163.456c4.34-3.030 8.184-6.15 11.314-9.28l142.864-142.862zM896 16c0-8.672-7.328-16-16-16h-736c-8.672 0-16 7.328-16 16v864c0 8.672 7.328 16 16 16h480c4.832 0 10.254-0.61 16-1.704v-254.296h254.296c1.094-5.746 1.704-11.166 1.704-16v-608z" />
<glyph unicode="&#xe666;" d="M534.626 937.372c-12.444 12.444-37.026 22.628-54.626 22.628h-384c-17.6 0-32-14.4-32-32v-960c0-17.6 14.4-32 32-32h768c17.6 0 32 14.4 32 32v576c0 17.6-10.182 42.182-22.626 54.626l-338.748 338.746zM832 0h-704v896h351.158c2.916-0.48 8.408-2.754 10.81-4.478l337.556-337.554c1.722-2.402 3.996-7.894 4.476-10.81v-543.158zM864 960h-192c-17.6 0-21.818-10.182-9.374-22.626l210.746-210.746c12.446-12.446 22.628-8.228 22.628 9.372v192c0 17.6-14.4 32-32 32z" />
<glyph unicode="&#xe667;" d="M903.432 760.57l-142.864 142.862c-31.112 31.112-92.568 56.568-136.568 56.568h-480c-44 0-80-36-80-80v-864c0-44 36-80 80-80h736c44 0 80 36 80 80v608c0 44-25.456 105.458-56.568 136.57zM858.178 715.314c3.13-3.13 6.25-6.974 9.28-11.314h-163.458v163.456c4.34-3.030 8.184-6.15 11.314-9.28l142.864-142.862zM896 16c0-8.672-7.328-16-16-16h-736c-8.672 0-16 7.328-16 16v864c0 8.672 7.328 16 16 16h480c4.832 0 10.254-0.61 16-1.704v-254.296h254.296c1.094-5.746 1.704-11.166 1.704-16v-608z" />
<glyph unicode="&#xe668;" d="M892.118 771.882l-120.234 120.236c-37.338 37.336-111.084 67.882-163.884 67.882h-448c-52.8 0-96-43.2-96-96v-832c0-52.8 43.2-96 96-96h704c52.8 0 96 43.2 96 96v576c0 52.8-30.546 126.546-67.882 163.882zM640 824.438c2.196-0.804 4.452-1.68 6.758-2.636 18.060-7.482 30.598-16.176 34.616-20.194l120.236-120.238c4.018-4.018 12.712-16.554 20.194-34.614 0.956-2.306 1.832-4.562 2.636-6.756h-184.44v184.438zM832 64h-640v768h384v-256h256v-512zM256 448h512v-64h-512zM256 320h512v-64h-512zM256 192h512v-64h-512z" />
<glyph unicode="&#xe669;" d="M892.118 771.882l-120.234 120.236c-37.338 37.336-111.084 67.882-163.884 67.882h-448c-52.8 0-96-43.2-96-96v-832c0-52.8 43.2-96 96-96h704c52.8 0 96 43.2 96 96v576c0 52.8-30.546 126.546-67.882 163.882zM640 824.438c2.196-0.804 4.452-1.68 6.758-2.636 18.060-7.482 30.598-16.176 34.616-20.194l120.236-120.238c4.018-4.018 12.712-16.554 20.194-34.614 0.956-2.306 1.832-4.562 2.636-6.756h-184.44v184.438zM832 64h-640v768h384v-256h256v-512z" />
<glyph unicode="&#xe66a;" d="M864 960h-768c-52.8 0-96-43.2-96-96v-832c0-52.8 43.2-96 96-96h768c52.8 0 96 43.2 96 96v832c0 52.8-43.2 96-96 96zM832 64h-704v768h704v-768zM256 384h448v-64h-448zM256 256h448v-64h-448zM320 672c0 53.019 42.981 96 96 96s96-42.981 96-96c0-53.019-42.981-96-96-96s-96 42.981-96 96zM480 576h-128c-52.8 0-96-28.8-96-64v-64h320v64c0 35.2-43.2 64-96 64z" />
<glyph unicode="&#xe66b;" d="M864 960h-768c-52.8 0-96-43.2-96-96v-832c0-52.8 43.2-96 96-96h768c52.8 0 96 43.2 96 96v832c0 52.8-43.2 96-96 96zM832 64h-704v768h704v-768zM256 512h448v-64h-448zM256 384h448v-64h-448zM256 256h448v-64h-448zM256 640h448v-64h-448z" />
<glyph unicode="&#xe66c;" d="M512 640c-209.368 0-395.244-100.556-512-256 116.756-155.446 302.632-256 512-256s395.244 100.554 512 256c-116.756 155.444-302.632 256-512 256zM448 512c35.346 0 64-28.654 64-64s-28.654-64-64-64-64 28.654-64 64 28.654 64 64 64zM773.616 254.704c-39.648-20.258-81.652-35.862-124.846-46.376-44.488-10.836-90.502-16.328-136.77-16.328-46.266 0-92.282 5.492-136.768 16.324-43.194 10.518-85.198 26.122-124.846 46.376-63.020 32.202-120.222 76.41-167.64 129.298 47.418 52.888 104.62 97.1 167.64 129.298 32.336 16.522 66.242 29.946 101.082 40.040-19.888-30.242-31.468-66.434-31.468-105.336 0-106.040 85.962-192 192-192s192 85.96 192 192c0 38.902-11.582 75.094-31.466 105.34 34.838-10.096 68.744-23.52 101.082-40.042 63.022-32.198 120.218-76.408 167.638-129.298-47.42-52.886-104.618-97.1-167.638-129.296zM860.918 716.278c-108.72 55.554-226.112 83.722-348.918 83.722s-240.198-28.168-348.918-83.722c-58.772-30.032-113.732-67.904-163.082-112.076v-109.206c55.338 58.566 120.694 107.754 192.194 144.29 99.62 50.904 207.218 76.714 319.806 76.714s220.186-25.81 319.804-76.716c71.502-36.536 136.858-85.724 192.196-144.29v109.206c-49.35 44.174-104.308 82.046-163.082 112.078z" />
<glyph unicode="&#xe66d;" d="M512 768c-223.318 0-416.882-130.042-512-320 95.118-189.958 288.682-320 512-320 223.314 0 416.878 130.042 512 320-95.116 189.958-288.686 320-512 320zM764.45 598.296c60.162-38.374 111.142-89.774 149.434-150.296-38.292-60.522-89.274-111.922-149.436-150.298-75.594-48.216-162.89-73.702-252.448-73.702-89.56 0-176.856 25.486-252.45 73.704-60.16 38.372-111.14 89.772-149.434 150.296 38.292 60.524 89.274 111.924 149.434 150.296 3.918 2.5 7.876 4.922 11.858 7.3-9.958-27.328-15.408-56.822-15.408-87.596 0-141.384 114.616-256 256-256s256 114.616 256 256c0 30.774-5.45 60.268-15.408 87.598 3.98-2.378 7.938-4.802 11.858-7.302zM512 550c0-53.020-42.98-96-96-96s-96 42.98-96 96 42.98 96 96 96 96-42.98 96-96z" />
<glyph unicode="&#xe66e;" d="M385.536 417.248c-5.696-8.224-12.64-28.832-20.864-33.888-8.224-5.024-17.504-8.544-27.808-10.496-10.336-1.984-21.024-2.848-32.064-2.528v-48.864h78.944v-193.472h63.712v319.872h-50.688c-1.792-12.192-5.536-22.4-11.232-30.624zM736 704h64c17.696 0 32 14.336 32 32v192c0 17.664-14.304 32-32 32h-64c-17.696 0-32-14.336-32-32v-192c0-17.664 14.304-32 32-32zM224 704h64c17.664 0 32 14.336 32 32v192c0 17.664-14.336 32-32 32h-64c-17.664 0-32-14.336-32-32v-192c0-17.664 14.336-32 32-32zM960 832h-64v-160c0-17.664-14.304-32-32-32h-192c-17.696 0-32 14.336-32 32v160h-256v-160c0-17.664-14.336-32-32-32h-192c-17.664 0-32 14.336-32 32v160h-64c-35.328 0-64-28.672-64-64v-768c0-35.328 28.672-64 64-64h896c35.328 0 64 28.672 64 64v768c0 35.328-28.672 64-64 64zM960 32c0-17.696-14.304-32-32-32h-832c-17.664 0-32 14.304-32 32v512c0 17.664 14.336 32 32 32h832c17.696 0 32-14.336 32-32v-512zM511.52 384.576h158.976c-29.952-36.864-54.048-74.4-72.48-118.56-18.4-44.192-20.416-90.176-23.968-137.984h68.192c0.288 21.312-6.24 44.32-1.632 68.992 4.672 24.672 11.264 49.024 19.744 73.12 8.544 24.064 19.136 46.752 31.872 68.064 12.672 21.344 27.296 39.328 43.744 53.952v55.744h-224.48v-63.328z" />
<glyph unicode="&#xe66f;" d="M704 448h-64v-128h64v128zM576 448h-64v-128h64v128zM704 640h-64v-128h64v128zM832 448h-64v-128h64v128zM576 256h-64v-128h64v128zM768 960h-64v-128h64v128zM256 960h-64v-128h64v128zM832 640h-64v-128h64v128zM576 640h-64v-128h64v128zM320 256h-64v-128h64v128zM192 448h-64v-128h64v128zM320 448h-64v-128h64v128zM832 896v-128h-192v128h-320v-128h-192v128h-128v-896h960v896h-128zM896 64h-832v640h832v-640zM192 256h-64v-128h64v128zM448 640h-64v-128h64v128zM448 256h-64v-128h64v128zM320 640h-64v-128h64v128zM448 448h-64v-128h64v128zM704 256h-64v-128h64v128z" />
<glyph unicode="&#xe670;" d="M896 832h-96v-32c0-35.29-28.71-64-64-64s-64 28.71-64 64v32h-320v-32c0-35.29-28.71-64-64-64s-64 28.71-64 64v32h-96c-35.2 0-64-28.8-64-64v-704c0-35.2 28.8-64 64-64h768c35.2 0 64 28.8 64 64v704c0 35.2-28.8 64-64 64zM896 64.116c-0.034-0.040-0.076-0.082-0.116-0.116h-767.77c-0.040 0.034-0.082 0.076-0.114 0.116v575.884h768v-575.884zM288 768c17.672 0 32 14.328 32 32v128c0 17.672-14.328 32-32 32s-32-14.328-32-32v-128c0-17.672 14.328-32 32-32zM736 768c17.672 0 32 14.328 32 32v128c0 17.672-14.328 32-32 32s-32-14.328-32-32v-128c0-17.672 14.328-32 32-32zM576 576h-320v-64h256v-128h-256v-64h256v-128h-256v-64h320zM704 128h64v448h-128v-64h64zM872-24h-720c-35.2 0-64 20.8-64 56v-32c0-35.2 28.8-64 64-64h720c35.2 0 64 28.8 64 64v32c0-35.2-28.8-56-64-56z" />
<glyph unicode="&#xe671;" d="M320 576h128v-128h-128zM512 576h128v-128h-128zM704 576h128v-128h-128zM128 192h128v-128h-128zM320 192h128v-128h-128zM512 192h128v-128h-128zM320 384h128v-128h-128zM512 384h128v-128h-128zM704 384h128v-128h-128zM128 384h128v-128h-128zM832 960v-64h-128v64h-448v-64h-128v64h-128v-1024h960v1024h-128zM896 0h-832v704h832v-704z" />
<glyph unicode="&#xe672;" d="M512 832c-247.424 0-448-200.576-448-448s200.576-448 448-448 448 200.576 448 448-200.576 448-448 448zM512 24c-198.824 0-360 161.178-360 360 0 198.824 161.176 360 360 360 198.822 0 360-161.176 360-360 0-198.822-161.178-360-360-360zM934.784 672.826c16.042 28.052 25.216 60.542 25.216 95.174 0 106.040-85.96 192-192 192-61.818 0-116.802-29.222-151.92-74.596 131.884-27.236 245.206-105.198 318.704-212.578zM407.92 885.404c-35.116 45.374-90.102 74.596-151.92 74.596-106.040 0-192-85.96-192-192 0-34.632 9.174-67.122 25.216-95.174 73.5 107.38 186.822 185.342 318.704 212.578zM448 640h64v-320h-64v320zM512 384h192v-64h-192v64z" />
<glyph unicode="&#xe673;" d="M576 410.51l109.254-109.256-90.508-90.508-146.746 146.744v218.51h128zM832 896c106.040 0 192-85.96 192-192 0-64.984-32.29-122.418-81.692-157.158-46.59 123.044-144.422 220.876-267.466 267.466 34.74 49.402 92.176 81.692 157.158 81.692zM349.158 814.308c-123.044-46.59-220.876-144.422-267.466-267.466-49.402 34.74-81.692 92.174-81.692 157.158 0 106.040 85.96 192 192 192 64.984 0 122.418-32.29 157.158-81.692zM512 768c-212.078 0-384-171.922-384-384 0-92.674 32.832-177.678 87.494-244.020l-23.494-203.98h64l63.992 115.388c56.484-32.678 122.058-51.388 192.008-51.388 69.948 0 135.52 18.71 192.004 51.386l-0.004-0.004 64-115.382h64l-23.502 203.968c54.668 66.346 87.502 151.352 87.502 244.032 0 212.078-171.922 384-384 384zM512 128c-141.384 0-256 114.616-256 256s114.616 256 256 256 256-114.616 256-256-114.616-256-256-256z" />
<glyph unicode="&#xe674;" d="M512 960c-282.77 0-512-229.23-512-512s229.23-512 512-512 512 229.23 512 512-229.23 512-512 512zM658.744 210.744l-210.744 210.746v282.51h128v-229.49l173.256-173.254-90.512-90.512z" />
<glyph unicode="&#xe675;" d="M658.744 210.744l-210.744 210.746v282.51h128v-229.49l173.256-173.254zM512 960c-282.77 0-512-229.23-512-512s229.23-512 512-512 512 229.23 512 512-229.23 512-512 512zM512 64c-212.078 0-384 171.922-384 384s171.922 384 384 384c212.078 0 384-171.922 384-384s-171.922-384-384-384z" />
<glyph unicode="&#xe676;" d="M64 448c35.36 0 64-28.64 64-64v-256c0-35.36-28.64-64-64-64h-64v-128h512v128h-63.744c-35.264 0-64.256 28.64-64.256 64l-0.128 448h-383.872v-128h64zM128 832c0 70.692 57.308 128 128 128s128-57.308 128-128c0-70.692-57.308-128-128-128s-128 57.308-128 128z" horiz-adv-x="512" />
<glyph unicode="&#xe677;" d="M512 960c-176.732 0-320-143.268-320-320 0-320 320-704 320-704s320 384 320 704c0 176.732-143.27 320-320 320zM512 448c-106.040 0-192 85.96-192 192s85.96 192 192 192 192-85.96 192-192-85.96-192-192-192z" />
<glyph unicode="&#xe678;" d="M512 960c-176.732 0-320-143.268-320-320 0-320 320-704 320-704s320 384 320 704c0 176.732-143.27 320-320 320zM512 444c-108.248 0-196 87.752-196 196s87.752 196 196 196 196-87.752 196-196-87.752-196-196-196zM388 640c0 68.483 55.517 124 124 124s124-55.517 124-124c0-68.483-55.517-124-124-124s-124 55.517-124 124z" />
<glyph unicode="&#xe679;" d="M953.396 885.358l-4.028 4.042c-94.148 94.134-248.194 94.134-342.326 0l-218.106-218.136c-94.134-94.132-94.134-248.176 0-342.31l4.026-4.026c7.832-7.848 16.146-14.924 24.736-21.458l79.848 79.85c-9.302 5.494-18.126 12.072-26.116 20.060l-4.042 4.042c-51.114 51.098-51.114 134.272 0 185.39l218.128 218.112c51.116 51.118 134.274 51.118 185.386 0l4.042-4.024c51.1-51.116 51.1-134.292 0-185.39l-98.686-98.686c17.132-42.308 25.248-87.4 24.538-132.386l152.604 152.604c94.134 94.136 94.134 248.178-0.004 342.316zM631.042 571.066c-7.832 7.832-16.146 14.922-24.736 21.44l-79.848-79.832c9.304-5.496 18.126-12.074 26.116-20.062l4.042-4.040c51.116-51.116 51.116-134.272 0-185.388l-218.13-218.134c-51.118-51.102-134.276-51.102-185.388 0l-4.042 4.042c-51.098 51.12-51.098 134.276 0 185.388l98.688 98.686c-17.134 42.306-25.246 87.402-24.538 132.386l-152.602-152.598c-94.136-94.132-94.136-248.178 0-342.324l4.026-4.032c94.152-94.128 248.192-94.128 342.328 0l218.11 218.118c94.134 94.132 94.134 248.194 0 342.326l-4.026 4.024z" />
<glyph unicode="&#xe67a;" d="M960 704h-256v64c0 35.2-28.8 64-64 64h-256c-35.204 0-64-28.8-64-64v-64h-256c-35.2 0-64-28.8-64-64v-576c0-35.202 28.796-64 64-64h896c35.2 0 64 28.798 64 64v576c0 35.2-28.8 64-64 64zM384 767.884c0.034 0.040 0.074 0.082 0.114 0.116h255.772c0.042-0.034 0.082-0.076 0.118-0.116v-63.884h-256.004v63.884zM960 448h-128v-96c0-17.602-14.4-32-32-32h-64c-17.604 0-32 14.398-32 32v96h-384v-96c0-17.602-14.4-32-32-32h-64c-17.602 0-32 14.398-32 32v96h-128v64h896v-64z" />
<glyph unicode="&#xe67b;" d="M704 320c-64-64-64-128-128-128s-128 64-192 128-128 128-128 192 64 64 128 128-128 256-192 256-192-192-192-192c0-128 131.5-387.5 256-512s384-256 512-256c0 0 192 128 192 192s-192 256-256 192z" />
<glyph unicode="&#xe67c;" d="M1017.378 384.006c8.004-55.482 13.216-131.392-11.664-160.446-41.142-48.044-301.712-48.044-301.712 48.042 0 48.398 42.856 80.134 1.712 128.178-40.472 47.262-113.026 48.030-193.714 48.042-80.686-0.012-153.242-0.78-193.714-48.042-41.142-48.046 1.714-79.78 1.714-128.178 0-96.086-260.57-96.086-301.714-48.044-24.878 29.054-19.668 104.964-11.662 160.446 6.16 37.038 21.724 76.996 71.548 127.994 0 0.002 0.002 0.002 0.002 0.004 74.738 69.742 187.846 126.738 429.826 127.968v0.030c1.344 0 2.664-0.010 4-0.014 1.338 0.004 2.656 0.014 4 0.014v-0.028c241.98-1.23 355.088-58.226 429.826-127.968 0.002-0.002 0.002-0.004 0.002-0.004 49.824-50.996 65.39-90.954 71.55-127.994z" />
<glyph unicode="&#xe67d;" d="M789.534 896c0 0-200.956 0-267.94 0-120.122 0-233.17-91.006-233.17-196.422 0-107.726 81.882-194.666 204.088-194.666 8.498 0 16.756 0.17 24.84 0.752-7.928-15.186-13.6-32.288-13.6-50.042 0-29.938 16.104-54.21 36.468-74.024-15.386 0-30.242-0.448-46.452-0.448-148.782 0.002-263.3-94.76-263.3-193.022 0-96.778 125.542-157.312 274.334-157.312 169.624 0 263.306 96.244 263.306 193.028 0 77.602-22.896 124.072-93.686 174.134-24.216 17.142-70.532 58.836-70.532 83.344 0 28.72 8.196 42.868 51.428 76.646 44.312 34.624 75.674 83.302 75.674 139.916 0 67.406-30.022 133.098-86.374 154.772h84.956l59.96 43.344zM695.948 240.542c2.126-8.972 3.284-18.208 3.284-27.628 0-78.2-50.39-139.31-194.974-139.31-102.842 0-177.116 65.104-177.116 143.3 0 76.642 92.126 140.444 194.964 139.332 24-0.254 46.368-4.116 66.668-10.69 55.828-38.828 95.876-60.76 107.174-105.004zM531.286 532.224c-69.038 2.064-134.636 77.226-146.552 167.86-11.916 90.666 34.37 160.042 103.388 157.99 69.008-2.074 134.636-74.814 146.558-165.458 11.906-90.66-34.39-162.458-103.394-160.392z" />
<glyph unicode="&#xe67e;" d="M559.066 896c0 0-200.956 0-267.94 0-120.12 0-233.17-91.006-233.17-196.422 0-107.726 81.882-194.666 204.088-194.666 8.498 0 16.756 0.17 24.842 0.752-7.93-15.186-13.602-32.288-13.602-50.042 0-29.938 16.104-54.21 36.468-74.024-15.386 0-30.242-0.448-46.452-0.448-148.782 0.002-263.3-94.758-263.3-193.020 0-96.778 125.542-157.314 274.334-157.314 169.624 0 263.306 96.244 263.306 193.028 0 77.6-22.896 124.072-93.686 174.134-24.216 17.144-70.53 58.836-70.53 83.344 0 28.72 8.196 42.868 51.428 76.646 44.312 34.624 75.672 83.302 75.672 139.916 0 67.406-30.020 133.098-86.372 154.772h84.954l59.96 43.344zM465.48 240.542c2.126-8.972 3.284-18.206 3.284-27.628 0-78.2-50.392-139.31-194.974-139.31-102.842 0-177.116 65.104-177.116 143.3 0 76.642 92.126 140.444 194.964 139.332 24-0.254 46.368-4.116 66.67-10.69 55.826-38.826 95.876-60.762 107.172-105.004zM300.818 532.224c-69.038 2.064-134.636 77.226-146.552 167.86-11.916 90.666 34.37 160.042 103.388 157.99 69.010-2.074 134.638-74.814 146.558-165.458 11.906-90.66-34.39-162.458-103.394-160.392zM832 704v192h-64v-192h-192v-64h192v-192h64v192h192v64z" />
<glyph unicode="&#xe67f;" d="M853.512 960h-684.27c-94.1 0-169.242-77.786-169.242-171.878v-680.352c0-96.422 75.142-171.77 169.242-171.77h684.268c94.096 0 170.49 75.348 170.49 171.77v680.352c0 94.092-76.394 171.878-170.488 171.878zM704 928v-160h-160v160h160zM480 928v-160h-160v160h160zM32 768v20.122c0 77.128 61.566 139.878 137.242 139.878h86.758v-160h-224zM768 320h-192v-192h-128v192h-192v128h192v192h128v-192h192v-128zM992 768h-224v160h85.512c76.364 0 138.488-62.75 138.488-139.878v-20.122z" />
<glyph unicode="&#xe680;" d="M0.806 90.336c-0.244 2.532-0.452 5.070-0.584 7.63 0.13-2.56 0.34-5.098 0.584-7.63zM235.908 394.852c92.010-2.738 153.734 92.698 137.862 213.198-15.894 120.48-103.396 217.168-195.408 219.922-92.026 2.73-153.74-89.482-137.852-210 15.882-120.468 103.352-220.374 195.398-223.12zM1024 704v85.31c0 93.88-76.782 170.69-170.658 170.69h-682.656c-92.276 0-168.012-74.232-170.564-165.926 58.362 51.386 139.324 94.316 222.874 94.316 89.304 0 357.244 0 357.244 0l-79.948-67.618h-113.268c75.13-28.804 115.156-116.124 115.156-205.722 0-75.248-41.81-139.954-100.888-185.968-57.644-44.902-68.572-63.708-68.572-101.878 0-32.578 61.746-88 94.032-110.788 94.382-66.538 124.916-128.312 124.916-231.456 0-16.428-2.042-32.83-6.066-48.96h307.742c93.874 0 170.656 76.75 170.656 170.69v533.308h-192v-191.998h-64v192h-191.998v64h191.998v192h64v-192h192zM185.886 194.064c21.614 0 41.422 0.59 61.936 0.59-27.146 26.334-48.626 58.6-48.626 98.38 0 23.608 7.564 46.336 18.134 66.52-10.782-0.77-21.79-0.994-33.126-0.994-74.356 0-137.506 24.076-184.204 63.854v-67.242l0.006-201.73c53.44 25.374 116.888 40.622 185.88 40.622zM3.42 72.742c-1.112 5.458-1.966 11.006-2.542 16.634 0.574-5.628 1.43-11.176 2.542-16.634zM455.45 7.154c-15.058 58.806-68.454 87.964-142.888 139.568-27.072 8.732-56.894 13.874-88.894 14.208-89.618 0.964-173.108-34.942-220.216-88.372 15.92-77.706 85.034-136.558 167.234-136.558h286.444c1.816 11.128 2.696 22.632 2.696 34.432 0 12.534-1.534 24.792-4.376 36.722z" />
<glyph unicode="&#xe681;" d="M459.33 300.168l-170.654-295.668h564.654l170.67 295.668zM975.612 384l-292.934 507.5h-341.348l292.956-507.5zM292.836 807.486l-292.836-507.318 170.676-295.668 292.832 507.324z" />
<glyph unicode="&#xe682;" d="M575.87-64h-191.87v512h-128v176.45l128 0.058-0.208 103.952c0 143.952 39.034 231.54 208.598 231.54h141.176v-176.484h-88.23c-66.032 0-69.206-24.656-69.206-70.684l-0.262-88.324h158.69l-18.704-176.45-139.854-0.058-0.13-512z" />
<glyph unicode="&#xe683;" d="M853.344 960h-682.66c-93.872 0-170.684-76.814-170.684-170.688v-682.626c0-93.938 76.812-170.686 170.684-170.686l682.66 0.002c93.876 0 170.656 76.746 170.656 170.688v682.622c0 93.874-76.782 170.688-170.656 170.688zM870.592 448h-166.592v-448h-192v448h-92.526v146.564h92.526v95.186c0 129.342 55.792 206.25 207.87 206.25h175.244v-158.57h-143.13c-42.482 0.070-47.752-22.152-47.752-63.512l-0.232-79.354h192l-25.408-146.564z" />
<glyph unicode="&#xe684;" d="M512 960c282.77 0 512-229.23 512-512 0-261.094-195.438-476.53-448-508.026v380.026h176l16 128h-192v64c0 35.346 28.654 64 64 64h128v128h-128c-106.040 0-192-85.96-192-192v-64h-96v-128h96v-380.026c-252.562 31.496-448 246.932-448 508.026 0 282.77 229.23 512 512 512z" />
</font>
</defs>
</svg>
