<?xml version="1.0" standalone="no"?>
<!DOCTYPE svg PUBLIC "-//W3C//DTD SVG 1.1//EN" "http://www.w3.org/Graphics/SVG/1.1/DTD/svg11.dtd" >
<svg xmlns="http://www.w3.org/2000/svg">
<metadata>
This is a custom SVG webfont generated by Font Squirrel.
Copyright   : 2007 Vic Fieger
Designer    : HighLogic  Erwin Denissen 1999
Foundry     : HighLogic
Foundry URL : httpwwwhighlogiccom
</metadata>
<defs>
<font id="webfont0xutTWOr" horiz-adv-x="634" >
<font-face units-per-em="2048" ascent="1638" descent="-410" />
<missing-glyph horiz-adv-x="389" />
<glyph unicode=" "  horiz-adv-x="389" />
<glyph unicode="&#x09;" horiz-adv-x="389" />
<glyph unicode="&#xa0;" horiz-adv-x="389" />
<glyph unicode="!" horiz-adv-x="698" d="M-4 1458q6 -113 27 -178q20 -80 14 -205l14 -108l12 -97q-27 -156 15 -315q102 -74 219 -41l96 14l15 54l14 55v70l12 53q-12 80 0 151v56l15 41v67q-8 20 0 41v123q49 137 40 248l-55 67l-41 15q-154 -31 -260 26h-96q-35 -65 -41 -137zM106 35l41 -15l27 -12h41h164 l84 -14q57 184 0 328q-101 104 -221 55q-53 29 -109 29q-121 -187 -27 -371z" />
<glyph unicode="&#x22;" horiz-adv-x="1146" d="M43 1255l25 -36l135 -306q266 12 243 527l-86 37q-126 -31 -221 12q-133 -89 -96 -234zM573 1245l25 -37l133 -305q268 12 246 527l-86 36q-126 -31 -221 13q-134 -89 -97 -234z" />
<glyph unicode="#" />
<glyph unicode="$" horiz-adv-x="1437" d="M190 1075q0 -125 25 -207q74 -74 104 -129q76 -14 130 -51q49 -29 77 -65l52 -13l53 -12l76 -53q143 -18 233 -64v-78q-170 -190 -63 -401q18 12 36 12h105q82 33 141 27q414 397 -12 711l-39 26l-39 39l-51 12l-39 39q-23 12 -27 27l-24 12q-211 80 -336 195 q197 190 63 362q-168 43 -270 -78q-191 -108 -195 -311zM281 508q-268 -367 311 -518l90 39l12 24q-6 47 0 90v183q-129 57 -155 155l-64 27q-108 -18 -194 0zM575 1675l21 -80l149 -20l160 20l31 111l-21 49l-180 60l-160 -21v-119zM655 -106l129 30l121 -30l21 -123 l-72 -47l-199 16v154zM862 1491q-166 -182 90 -377l15 -90l39 -39q176 16 297 -27l104 144q-135 436 -545 389z" />
<glyph unicode="%" />
<glyph unicode="&#x26;" horiz-adv-x="485" />
<glyph unicode="'" d="M43 1255l25 -36l135 -306q266 12 243 527l-86 37q-126 -31 -221 12q-133 -89 -96 -234z" />
<glyph unicode="(" horiz-adv-x="335" />
<glyph unicode=")" horiz-adv-x="382" />
<glyph unicode="*" horiz-adv-x="491" />
<glyph unicode="+" />
<glyph unicode="," horiz-adv-x="559" d="M6 258l12 -268q0 -92 13 -148q94 -61 182 -12q71 -18 123 -12q39 272 12 440q-58 40 -110 61q-34 -12 -62 -12l-22 -24q-93 15 -148 -25z" />
<glyph unicode="-" horiz-adv-x="937" d="M45 588l61 -99h37l25 15h49l84 10l270 12l37 -37l74 15q96 166 10 330l-59 12q-18 -12 -37 -12h-37q-113 -20 -194 0q-139 -35 -246 -15q-99 -100 -74 -231z" />
<glyph unicode="." horiz-adv-x="706" d="M33 383q-29 -174 24 -309q135 -88 260 -39q156 -74 187 88q88 305 -150 346q-141 -76 -270 -39z" />
<glyph unicode="/" horiz-adv-x="356" />
<glyph unicode="0" horiz-adv-x="1548" d="M6 694q18 -61 12 -102l15 -105q-2 -311 139 -426.5t428 -37.5l27 51l12 168q-45 55 -64 116q-205 68 -167 465q-51 250 180 297q20 76 39 117q20 162 -78 258h-78l-27 -27l-36 -12l-54 -12q-123 -84 -207 -105l-12 -39q-92 -121 -117 -206q9 -18 0 -37v-234 q0 -74 -12 -129zM705 215q29 -119 102 -207q293 -31 417 122t74 486q137 760 -440 852q-123 -96 -102 -243q53 -127 141 -183v-38q4 -80 14 -130v-90l-14 -39q25 -215 -12 -374q-129 -54 -180 -156z" />
<glyph unicode="1" horiz-adv-x="870" d="M6 1141q117 -119 279 -76l12 -76l-12 -51q2 -121 -15 -213l-12 -115l12 -139q-23 -102 -12 -176q-31 -92 -25 -166l64 -139q66 10 127 39q123 -39 215 -15l12 66l13 74l12 90q-47 195 -12 354q-25 123 -13 213v90q-12 100 0 176l-12 51v37q27 166 12 291l-39 27 q-244 -35 -415 12q-160 -166 -191 -354z" />
<glyph unicode="2" horiz-adv-x="1384" d="M27 840l36 -49q346 -39 383 174q46 89 111 135q35 217 0 383l-61 12q-12 -15 -25 -12q-166 -108 -319 -135l-89 -88l-12 -86q-47 -170 -24 -334zM51 199l27 -187l37 -12h37l36 12h37q92 -9 160 0q12 22 25 25q45 135 110 211q59 59 113 98q37 61 74 98l49 25l12 39l37 24 l12 23l37 39l39 24l22 25q71 58 111 111q86 37 137 100q51 487 -407 604l-62 -61v-101q-47 -207 0 -383l-37 -36l-36 -37l-37 -37l-49 -37l-25 -49l-39 -25q-61 -83 -123 -123l-24 -37q-76 -102 -123 -149l-27 -37q-83 -79 -123 -147zM547 37q190 -95 368 -25 q174 -35 240 33t21 240v61q-31 3 -50 12l-49 13q-150 -31 -272 0q-25 -40 -62 -62q-40 -58 -86 -86q-33 -76 -100 -110z" />
<glyph unicode="3" horiz-adv-x="1396" d="M164 197q113 -221 346 -211q117 -6 158 67.5t4 229.5q-143 100 -174 247q-80 15 -136 13q-68 16 -124 12q-213 -157 -74 -358zM188 913q135 35 248 13q74 127 199 174l37 49q111 274 -88 346q-578 -181 -396 -582zM547 641l74 -86q174 35 260 -98q-158 -268 -50 -398 q393 -25 457 285q37 219 -135 322q25 86 86 137q111 629 -408 655q-201 -252 87 -444l12 -101q-152 -104 -322 -61q-79 -102 -61 -211z" />
<glyph unicode="4" horiz-adv-x="1505" d="M47 659q-41 -238 88 -378q76 8 139 -13h37l254 -12l51 49v27q-29 152 -14 252q-96 78 -188 90q86 100 176 137l12 90v64v36l-12 39v37v88l-12 76l-64 14l-127 -114l-12 -37l-88 -154l-37 -24l-14 -37l-25 -15l-25 -12l-14 -24zM680 1026l12 -76v-100q14 -150 0 -252 q61 -250 0 -457q37 -70 49 -112q23 -12 27 -27l49 -12q162 41 293 24q16 147 59 220t117 71l37 64q2 92 27 166q-61 197 -240 239v64q-16 14 -14 24l-13 254q27 186 0 316q-101 37 -178 24l-164 39q-45 -68 -61 -100v-64l12 -26q-18 -88 -12 -152v-127z" />
<glyph unicode="5" horiz-adv-x="1353" d="M186 680l93 -80h38q94 -14 154 -12q215 45 389 -27l14 -63q-221 -299 -26 -506q367 78 440 377q76 291 -168 503q-115 53 -182 117q-74 9 -129 0q-57 8 -92 -4l-62 -4q-184 -57 -260 61l-196 -53q-87 -82 -13 -309zM254 446q-249 -332 227 -430l123 -24q94 180 76 340 l-45 12l-244 139q-80 -29 -137 -37zM260 1098l70 16q70 -12 141 -8h41q152 -2 258 12q74 -12 129 -12q166 47 299 12q145 178 51 365h-39l-39 12q-250 -72 -464 -27h-39q-152 4 -260 -12q-61 14 -117 39q-271 -200 -31 -397z" />
<glyph unicode="6" horiz-adv-x="1308" d="M248 938q-240 -553 235 -893q127 -45 224 -22l22 245q-266 274 -111 572q55 256 248 383q28 77 62 123q-39 94 -111 149q-100 -12 -174 0q-323 -235 -395 -557zM692 702l64 -61q242 12 223 -211q-63 -78 -150 -111q-14 -186 25 -321q72 -23 113 -27q309 221 309 533 q-16 471 -447 532q-149 -152 -137 -334z" />
<glyph unicode="7" horiz-adv-x="1345" d="M133 1421q-127 -229 62 -374q143 35 254 22q141 -27 210.5 10t67.5 138q78 109 39 217l-74 24l-37 -24h-59h-39h-35q-117 10 -207 -13q-100 20 -182 0zM315 233q-14 -121 13 -206l49 -37q59 6 96 37q90 -12 158 0q12 22 24 24l13 35l12 39l12 22q55 145 109 220 q27 74 61 120l25 37l10 25q43 115 86 180l25 86l24 25l12 24l35 84l27 25q37 88 72 135q41 121 49 217q-37 170 -170 170q-46 -34 -99 -37q-27 -68 -71 -96q-16 -68 -13 -123l-61 -72l-108 -219l-50 -108l-24 -25q-57 -190 -158 -303q-43 -183 -158 -279z" />
<glyph unicode="8" horiz-adv-x="1372" d="M6 1008q18 -139 94 -240l25 -94l-12 -25v-35q-66 -190 -60 -344q104 -244 322 -286q72 -14 110.5 28.5t42.5 139.5q-59 131 -141 200v109q123 152 154 319l-25 13q-12 20 -22 24l-35 82q-74 43 -119 96q-4 80 10 131q281 150 72 369h-35q-47 -37 -96 -47 q-63 -76 -141 -96q-37 -53 -72 -72q-25 -159 -72 -272zM590 723l22 -25l13 -36q23 -39 59 -70q27 -94 72 -156q-37 -96 -119 -131l-37 -72q0 -123 37 -237q92 -3 166 37q45 41 94 57q68 78 156 109q31 45 71 71q27 184 13 297q-15 12 -13 25q-98 76 -143 176 q205 553 -309 702q-168 -195 24 -331q25 -57 25 -109q-115 -155 -131 -307z" />
<glyph unicode="9" horiz-adv-x="1290" d="M291 664l24 -13q139 -111 281 -145l61 59q34 101 74 160q-52 114 -147 172q0 59 -13 96v86q172 117 99 367l-49 24h-25h25h-25q-74 -28 -135 -24q-453 -360 -170 -782zM449 14l86 -71h61q61 94 268 49l27 49l37 37v59l35 49q12 68 36 123l13 25q51 86 73 145l13 37 q12 22 24 25q15 65 37 98l12 25l37 86q6 74 37 135l12 207q-129 303 -403 403l-74 -49q39 -184 13 -342q71 -65 98 -135l-49 -37q-104 -401 -344 -672l-37 -74q-18 -104 -12 -172z" />
<glyph unicode=":" horiz-adv-x="706" d="M33 383q-29 -174 24 -309q135 -88 260 -39q156 -74 187 88q88 305 -150 346q-141 -76 -270 -39zM33 1182q-29 -174 24 -310q133 -86 260 -36q156 -74 187 86q88 305 -150 346q-138 -74 -270 -37z" />
<glyph unicode=";" />
<glyph unicode="&#x3c;" />
<glyph unicode="=" />
<glyph unicode="&#x3e;" />
<glyph unicode="?" horiz-adv-x="1312" d="M14 979q-4 -129 82 -172t260 2q66 141 74 244q92 37 135 110q55 219 -86 342q-393 -153 -465 -526zM418 86q114 -108 246 -86q213 -55 120 283q-160 63 -305 49q-79 -114 -61 -246zM442 455q92 -106 207 -49l64 -37l71 49q82 270 306 401q147 551 -355 613 q-240 -240 25 -441l-25 -24l-10 -37l-39 -35l-72 -61l-12 -37q-95 -71 -147 -148q-13 -116 -13 -194z" />
<glyph unicode="@" horiz-adv-x="577" />
<glyph unicode="A" horiz-adv-x="1748" d="M-8 106q20 -35 26 -63l25 -14h41q164 -6 297 -39l51 26q37 131 90 207q42 4 84 5q132 0 254 -44q43 53 78 78v27q-20 37 -27 78q-53 66 -63 141l-53 65l-27 -14q-62 21 -118 21q-31 0 -62 -7l12 52q59 129 78 221l-78 115v53q-59 94 -63 192l-54 27q-49 -88 -90 -141 l-51 -170l-39 -39l-12 -64l-27 -39l-26 -53l-13 -39l-26 -39l-103 -282q-81 -136 -104 -261zM575 1364l13 -53l12 -51l66 -78l116 -234q33 -115 39 -180l27 -41l12 -51q12 -14 12 -39q37 -53 39 -102l52 -78l14 -78q98 -156 117 -311q173 -79 280 -79q144 0 172 142l-26 53 l-13 66q-152 186 -168 414q-45 55 -65 104l-27 102l-24 27l-15 39l-12 39l-12 24l-27 78v39q-16 12 -12 27q-20 47 -27 90q-59 84 -63 180q-65 49 -105 92q-83 -17 -158 -17t-141 17q-76 -55 -76 -141z" />
<glyph unicode="B" horiz-adv-x="1572" d="M18 506l13 -39v-303q25 -102 53 -160l51 -12q48 11 88.5 11t71.5 -11l78 12l65 68v39l27 104q-13 56 -13 130q0 14 1 30v51q15 71 15 133.5t-15 116.5v41l12 39v39q0 76 12 131v104q-6 60 -6 112.5t6 98.5q-25 97 -25 181q0 9 1 18l-39 53h-107q-60 -11 -113 -11t-98 11 q-61 -63 -78 -133l13 -209q-2 -31 -2 -60q0 -87 14 -153l-12 -117v-119l-13 -38q8 -46 8 -86t-8 -72zM571 756q6 -186 184 -187q19 0 40 2q33 -45 39 -104q-98 -41 -185 -41l-51 -51q-44 -134 -44 -222q0 -166 158 -166q26 0 56 5q40 -4 78 -4q360 0 502 319q10 61 24 107 v39l-24 172q-88 127 -107 249q104 195 107 381q-86 82 -119 170l-80 41l-39 13q-76 0 -145 26q-48 -11 -87 -10.5t-71 10.5q-233 -30 -233 -191q0 -84 63 -204q117 -12 197 -66l-27 -92h-7q-220 1 -229 -196z" />
<glyph unicode="C" horiz-adv-x="1648" d="M182 528q135 -446 570 -542q51 39 104 92q8 46 8 87q0 203 -192 269l-54 80q-33 104 -38 184q12 121 38 187q256 172 256 384q0 100 -57 210h-53q-612 -216 -612 -716q0 -111 30 -235zM948 330q-8 -67 -8 -119q0 -192 111 -192q36 0 84 20q315 49 460 330v94l-65 51 q-108 28 -172 92h-92q-68 -78 -92 -143l-27 -14q-127 -60 -199 -119zM1067 1505q-102 -118 -102 -231q0 -195 301 -377h80q109 80 225 80q21 85 21 164q0 51 -9 100l-41 12l-12 41l-27 13l-26 26q-117 90 -172 146q-13 0 -27 -1q-122 0 -211 27z" />
<glyph unicode="D" horiz-adv-x="1773" d="M18 1251q16 -82 17 -149q0 -34 -4 -64l12 -77v-107q-2 -68 -2 -123.5t2 -99.5l-12 -41l12 -92l-12 -27v-106q-1 -33 -1 -64q0 -160 27 -266l39 -39q88 9 160.5 9t130.5 -9q39 29 80 39v23q0 107 27 188l-15 80v53v51l-12 68l12 53q-2 84 -12 145v146v131q5 87 5 167 q0 202 -32 349h-39q-51 12 -106 12q-46 -18 -96 -18q-29 0 -62 6l-80 -27l-39 -172v-39zM586 1118q57 -41 106 -65q79 21 143 21q222 0 252 -259q-20 -386 -382 -386q-19 0 -39 1l-54 -51q-8 -49 -7.5 -90t7.5 -70q2 -48 2 -86.5t-2 -71.5q14 -49 15 -79l64 -2 q797 0 886 743q-54 782 -803 782q-53 0 -108 -4q-99 -123 -100 -259q0 -61 20 -124z" />
<glyph unicode="E" horiz-adv-x="1425" d="M31 1190q14 -35 14 -75q0 -13 -2 -28l12 -606q-18 -121 -18 -225.5t18 -192.5q101 -43 188 -43q137 0 242 107q0 13 1 25q0 110 -25 190v64v36q2 29 1 57q0 82 -13 146v139v37v39v37v78v37v51q-2 32 -2 62q0 89 14 153v100l-12 88l-103 15l-37 -27q-50 7 -94 7 q-74 0 -133 -19q-18 -86 -51 -139l12 -76zM600 393q-41 -95 -41 -181q0 -121 80 -224l37 12h49l39 12l39 15l51 -15l37 15h39l200 12q120 28 120 139q0 23 -5 49q8 38 8 71q0 118 -108 159l-39 -27h-102l-37 -12h-52h-36h-254q-13 -22 -25 -25zM639 948q-81 -139 -81 -225 q0 -134 194 -141q43 -7 78 -8q157 0 157 146q0 80 -47 204q-37 14 -75 13q-13 0 -25 -1q-35 -3 -67 -3q-74 0 -134 15zM649 1051h39l27 24h37l39 12h49h39h51h225l51 52q31 112 32 190q0 160 -132 176q-35 -16 -68 -16q-17 0 -34 4q-12 -15 -25 -12h-39h-37l-24 -15h-39 h-164q-111 -111 -111 -221q0 -96 84 -194z" />
<glyph unicode="F" horiz-adv-x="1468" d="M18 125l25 -92q23 -12 27 -27l39 -12l92 12l233 -12l27 51l39 66v92l-27 78l12 77v52v65v78q-8 48 -7.5 90.5t7.5 79.5l-12 39v51l-12 51l12 66l-12 51v104v39v39v105q11 61 11 113.5t-11 95.5q-31 6 -39 24q-83 -29 -164.5 -29t-161.5 29q-49 -72 -65 -117l12 -442 q0 -61 -12 -102q15 -125 15 -222q0 -41 -3 -77v-92l-12 -39l12 -52v-92zM578 1112l63 -51h80q20 3 39 3t39 -3l24 12h39h53q65 0 105 12q61 -2 102 -12l92 12q39 70 40 145q0 5 -1 11q20 70 21 121q0 143 -161 143q-25 0 -54 -4q-23 -12 -39 -12h-105q-75 -5 -139.5 -5 t-120.5 5l-77 -39v-338zM590 553l78 -27q74 20 138.5 20t121.5 -20q49 110 48 219q0 94 -36 185l-78 12q-23 -12 -39 -12h-19q-125 0 -214 -39v-78l12 -27q-18 -83 -18 -155q1 -41 6 -78z" />
<glyph unicode="G" horiz-adv-x="1732" d="M162 526q104 -469 586 -508l77 66q3 52 3 100q0 113 -15 201q-219 29 -274 221q6 174 53 299q240 156 248 391q2 18 2 34q0 143 -148 149l-63 -66q-496 -185 -497 -652q1 -110 28 -235zM891 96q20 -111 99 -111q92 0 265 150q7 4 15 5q43 0 78 -160l233 26l92 170l-12 27 v39q-40 119 -40 223q0 60 13 115l-12 65q-12 92 -53 156l-39 -13h-66h-39l-182 13l-26 -13q-100 20 -170 25q-117 -61 -118 -169q0 -5 1 -11q-2 -11 -2 -22q0 -131 250 -148q-84 -78 -176 -78h-7q-47 -47 -92 -66q-21 -71 -20 -139q0 -43 8 -84zM930 1102q176 -25 235 -158 q55 -20 90 -65q274 148 274 283q0 183 -495 343q-127 -121 -127 -271q0 -63 23 -132z" />
<glyph unicode="H" horiz-adv-x="1716" d="M18 158l52 -129l102 -39q84 33 162 33q35 0 69 -7q47 104 64 193q-26 82 -26 142q0 12 1 24v51v78v63v78v51v142v51v51v39v51q-6 18 0 37l-14 104v39q6 84 27 154l-13 78q-43 51 -90 63q-12 -23 -26 -26q-54 10 -103 10q-105 0 -180 -47l-25 -78l13 -64l-13 -77 q6 -20 0 -39v-37q5 -51 5 -92.5t-5 -75.5l13 -39v-358l12 -27l-12 -78q10 -78 10 -144q0 -96 -23 -175zM545 862q-5 -45 -5 -87q0 -127 44 -232l280 24l39 -12q63 125 63 238q0 70 -24 135q-36 -2 -70 -2q-126 0 -225 26l-26 -24zM1044 1094l15 -64l12 -219q-2 -33 -2 -61 q0 -75 14 -132l-12 -36v-129q-8 -114 -8 -207.5t8 -165.5q20 -12 25 -27q39 -14 76 -14q13 0 26 2h51q108 -25 190 -25h17l51 64l13 78v63q-27 102 -27 166l14 78q-5 56 -5 106q0 91 18 164v37q-12 18 -13 39v129l-14 39l14 39v39v100q-3 35 -2 68q0 77 15 139 q-25 88 -76 141q-85 -29 -169 -28q-63 0 -126 16l-90 -51l-15 -39v-309z" />
<glyph unicode="I" horiz-adv-x="624" d="M18 174l13 -76q25 -59 61 -98h39l39 -14q69 31 142 31q34 0 71 -7q29 102 61 164v88l-12 64l-12 88l12 24q-12 18 -12 37v152q-12 41 -12 75l12 50v51v137v49v51v52v36v52q0 63 -12 100q6 59 6 109.5t-6 91.5l-25 12q-62 -7 -119 -7q-95 0 -172 19l-61 -63v-37 q0 -82 -13 -139q6 -32 6.5 -63.5t-6.5 -61.5l13 -64l-13 -49v-352l13 -37v-313q-1 -93 -13 -152z" />
<glyph unicode="J" horiz-adv-x="1396" d="M94 514q-12 -68 -12 -128q0 -308 334 -398q22 -3 42 -3q48 0 87 15v104v37q39 94 39 168q-135 88 -156 258l-37 13q-60 -12 -112 -12.5t-95 12.5zM674 180q55 -88 51 -180l90 -12q12 16 27 12l12 27l25 12l26 12l37 27l39 12q78 78 129 105q45 102 102 153q2 68 27 129 l12 51v217l-12 207v39v166v39v30q0 151 -27 267l-75 12q-60 -14 -111 -14t-94 14q-76 -74 -105 -129q-1 -16 0 -30q0 -81 15 -138l-15 -114q16 -62 16 -106q0 -13 -1 -23l12 -52v-77q-13 -41 -13 -85q0 -9 1 -18q-18 -114 -18 -198q0 -38 3 -70l-12 -39q-80 -46 -129 -104 q0 -84 -12 -142z" />
<glyph unicode="K" horiz-adv-x="1687" d="M29 432l12 -49q-9 -82 -9 -150q0 -106 21 -184l39 -24l37 -13q49 11 93 12q63 0 112 -24h102l51 100v115q-24 105 -23 198q0 64 11 122l-12 38l12 37l-12 27l12 39q-14 88 -14 159q0 24 2 46l-14 24l14 37q-6 53 -6 101q0 114 30 206q0 92 13 154l-64 76q-72 14 -102 14 q-58 -11 -110 -11t-95 11q-66 -70 -88 -154v-63l12 -90v-193l-12 -24q12 -51 12 -99.5t-12 -93.5v-305zM539 854q18 -91 17 -165q0 -41 -5 -79l51 -51l27 -24l12 -52l25 -37q23 -12 26 -26q41 -68 88 -115l15 -39l24 -24l12 -27l27 -25l12 -38q88 -98 127 -166h90 q78 48 159 48q36 0 71 -9q163 0 163 74q0 77 -175 233l-25 37l-27 24l-24 39l-27 39l-39 27q-106 178 -202 278q45 61 88 90l14 27q12 15 24 12q129 256 320 395q66 94 76 179l-37 14l-27 12q-83 -12 -156.5 -12t-136.5 12h-14h14h-14h-25h25h-25q-18 -12 -38 -12 q-57 -86 -115 -117q-71 -123 -178 -190q-78 -131 -193 -205z" />
<glyph unicode="L" horiz-adv-x="1480" d="M18 295q0 -147 39 -250l66 -39l90 14q72 0 131 -26l66 12q53 98 63 197q-14 100 -39 170l15 39q-8 54 -9 102q0 76 21 143l-12 27v51l12 29l-12 24q-1 13 -1 26q0 64 13 118q-15 49 -15 94q0 19 3 37v102l12 262q-74 61 -144 78l-26 -26q-27 2 -54 2q-99 0 -180 -29 l-14 -63l-12 -78l12 -68v-90l-12 -39q8 -37 7.5 -73t-7.5 -70q12 -43 12 -78v-182l14 -39l-14 -39l14 -39l-14 -27v-248zM565 33q42 -39 84 -39h6l105 12h51h53h54h38l39 14h39q20 -1 39 0q94 0 168 13q50 135 50 227q0 132 -101 176q-18 -12 -39 -12q-58 -11 -113.5 -11 t-107.5 11h-51q-69 -5 -125 -5t-99 5q-120 -105 -119 -245q0 -69 29 -146z" />
<glyph unicode="M" horiz-adv-x="1822" d="M18 84q70 -83 209 -83q84 0 193 30l49 221q-10 14 -10 39v102v39v90l10 27v90l14 141q188 -152 273 -309l90 -51q214 102 214 300q0 36 -7 75l-105 63q-63 80 -90 129q-23 12 -27 27q-20 12 -24 26l-27 25l-24 27l-66 77q-43 31 -63 76q-117 104 -168 207l-39 14l-105 13 q-111 0 -206 26q-63 -76 -91 -129l25 -207l-12 -77l12 -52l-12 -440l-13 -51l13 -39zM975 1155l12 -168q131 -88 182 -192l13 -351l-13 -38l13 -39v-37q-11 -83 -11 -151t11 -122q131 -75 261 -74l138 21l14 105l27 155v90v44q0 132 -14 241l14 51v39v39v39v39q-5 93 -5 172 q0 198 30 332q-41 74 -78 116l-76 13q-52 -13 -100 -13q-70 0 -133 27l-15 -41h-51l-12 -25l-27 -24z" />
<glyph unicode="N" horiz-adv-x="1687" d="M6 981q0 -84 12 -129q28 -58 28 -101q0 -8 -1 -16v-180l-12 -39l12 -39l-12 -24l12 -39l-12 -27v-244l12 -77q116 -65 239 -65q16 0 31 1l76 39q20 92 39 141v51v39l14 39q-17 95 -16.5 179t16.5 155l-26 39q-41 33 -64 78q-51 27 -78 51l-38 90q-117 106 -168 193 q-46 -56 -64 -115zM33 1303l37 -54l26 -24l13 -27l38 -24l25 -27q47 -70 104 -115l52 -39l39 -63l63 -66q59 -94 129 -168l27 -51l24 -24q43 -76 90 -117l27 -51l39 -52l39 -39l24 -51q20 -12 25 -26l14 -39q129 -121 193 -244q44 5 87 5q107 0 198 -32l75 27q23 87 23 165 q0 47 -8 91l-39 41l-39 37l-51 39l-39 51q-82 84 -117 168l-39 39q-22 12 -25 24q-41 68 -90 117l-14 39q-16 12 -25 39l-38 39q-31 70 -66 115q-18 14 -25 38l-24 25q-12 20 -27 27l-12 39l-27 24l-51 90l-26 15q-10 18 -25 24q-63 127 -102 180l-54 27l-90 -12h-37 q-30 -2 -58 -2q-84 0 -149 14q-118 -44 -117 -155q0 -17 3 -37zM1061 864q20 -18 26 -39q92 -65 130 -153q137 -76 204 -180l39 -66q12 61 13 104l14 91l-27 102v63v144v51v39l13 90l26 283l-39 75q-75 -5 -139.5 -4.5t-118.5 4.5q-66 -27 -129 -63l-12 -90v-39 q16 -12 12 -27v-127z" />
<glyph unicode="O" horiz-adv-x="1794" d="M156 561q135 -551 659 -569l78 51q-2 53 -27 104q-6 106 -24 156l-51 66q-225 87 -226 301q0 58 17 125q35 268 272 338q13 83 13 146q0 182 -103 216q-63 -28 -123 -27h-20q-66 -39 -129 -38q-356 -292 -356 -680q0 -92 20 -189zM944 238l14 -66v-37q33 -76 39 -131 q63 0 129 14q123 104 246 129q57 41 105 52q201 304 201 577q0 344 -318 641q-182 70 -311 78l-52 -27l-26 -323q293 -117 299 -402q-37 -285 -273 -389q-20 -67 -53 -116z" />
<glyph unicode="P" horiz-adv-x="1613" d="M86 594q-13 -112 -13 -216q0 -181 40 -333l53 -51h39h39l221 12l27 66v65l-15 170l-12 51q-5 51 -5 94t5 76q-13 59 -13 112q0 10 1 19v78l12 39l-12 131l12 39l-12 39l12 39l-12 41l12 39q-2 26 -2 51q0 94 29 170l-15 80q-47 64 -116 64q-6 0 -13 -1q-67 -18 -129 -17 q-34 0 -67 5l-39 -39l-13 -65l13 -328l-13 -39v-170q-17 -98 -16 -169q0 -27 2 -52zM584 698l12 -24q18 -109 51 -209q25 -1 50 -1q619 0 735 521q-55 510 -754 510h-16q-78 -103 -78 -203q0 -81 51 -162q39 5 75 5q176 0 277 -111q-20 -215 -340 -221q-22 -66 -63 -105z " />
<glyph unicode="Q" horiz-adv-x="1843" d="M256 428q76 -266 313 -377l37 -12h39l37 -12l225 -27h127l88 12l74 -12q70 12 127 12l37 -12l39 12h100q152 -25 250 -24q61 74 76 151l-64 226q-120 -13 -213 -13h-37q-12 1 -23 1q-58 0 -102 -13q-54 13 -97 13q-9 0 -17 -1h-86q-48 -3 -94 -3q-193 0 -347 52 q-88 109 -100 228q-16 65 -16 122q0 259 329 367v49l13 39l12 25q-9 65 -9 120.5t9 104.5l-76 39q-12 -15 -24 -12h-37l-189 -27q-452 -276 -452 -714q0 -148 51 -314zM1110 1106q194 -135 194 -320q0 -75 -32 -157l12 -37q-3 -32 -3 -61t3 -54q25 -14 27 -24q98 6 176.5 6 t136.5 -6q78 39 113 100q18 126 18 234q0 638 -620 669l-13 -37q7 -68 7 -129q0 -101 -19 -184z" />
<glyph unicode="R" horiz-adv-x="1650" d="M61 543q14 -67 14 -120q0 -18 -1 -34q-11 -109 -11 -199.5t11 -160.5q78 -31 116 -39q124 40 228 39h28q53 12 66 63l12 66q-23 86 -26 141l-13 51q13 87 13 154v26v39l-13 166l13 27q-6 43 -6 81.5t6 71.5v105v39v166q27 102 27 167q0 7 -1 13q-29 51 -39 78l-39 12 q-86 -9 -158.5 -9t-135.5 9q-59 -76 -78 -129q14 -81 14 -141q0 -20 -2 -39v-90q-6 -75 -6 -139t6 -117l-12 -52q-2 -66 -2 -121t2 -98zM627 530q45 -72 90 -114q74 -80 102 -156q125 -104 180 -231q58 -23 120 -23q42 0 87 10q59 -29 110 -29q77 0 134 68q-18 74 -51 142 q-57 53 -78 90q-174 121 -231 295q72 47 153 51q153 215 153 439q0 57 -10 114l-26 26q-76 143 -154 220l-155 36l-37 15l-39 -15l-27 15l-258 12q-100 -84 -100 -181q0 -91 88 -192q172 -6 270 -39q-10 -201 -172 -200q-33 0 -71 8q-12 -29 -39 -39l-13 -90v-39 q-29 -71 -28 -150q0 -21 2 -43z" />
<glyph unicode="S" horiz-adv-x="1437" d="M182 383q123 -393 468 -394q36 0 75 5q66 72 66 145q0 113 -154 230l-14 92l-39 39q-53 -5 -99 -5q-115 0 -198 29zM428 1444q-203 -196 -203 -372q0 -182 217 -341l39 -24l37 -39l53 -15l39 -39q25 -14 27 -24l25 -15q215 -82 335 -192q-117 -113 -117 -220 q0 -72 54 -143q45 -11 84 -11q111 0 186 89q193 109 195 310q0 117 -27 206q-68 68 -102 131q-76 14 -129 52q-53 29 -78 63l-51 14l-54 13l-75 51q-139 18 -234 66v77q104 117 104 243q0 78 -40 159q-20 -14 -37 -15h-105q-64 -26 -121 -25q-11 0 -22 1zM895 1159 q129 -57 156 -155l63 -27q54 9 103 9t92 -9q84 115 84 210q0 205 -396 308l-90 -39l-12 -26q3 -25 3 -47t-3 -44v-180z" />
<glyph unicode="T" horiz-adv-x="1568" d="M45 1200l41 -139l37 -14q96 22 188 22l107 -8q19 104 18 188q0 162 -69 246q-86 -36 -170 -36q-43 0 -86 9q-70 -107 -70 -214q0 -27 4 -54zM457 188l39 -165l36 -25l27 -14q80 35 157 34q37 0 72 -8q76 10 117 51v76l13 51l-13 25v41l-12 25v38v37v168l12 25 q-18 95 -18 175q0 44 6 83l12 37v129v37q22 164 22 292q0 86 -9 156l-39 27q-60 -10 -117 -10q-85 0 -164 22l-80 -37l-18 -110q29 -141 32 -250l-12 -37q0 -106 -12 -180q-12 -141 -12 -232l-15 -39v-100q3 -52 4 -97q0 -130 -28 -225zM1020 1124l24 -63q43 6 84 6 q74 0 136 -20q109 109 108 247q0 76 -33 162q-37 6 -72 6t-69 -6h-37l-90 27q-27 -35 -51 -51q0 -68 12 -103q-14 -81 -14 -153q0 -27 2 -52z" />
<glyph unicode="U" horiz-adv-x="1576" d="M8 1331q14 -39 15 -63l24 -49v-164l12 -27v-113l-12 -38q2 -78 2 -132t-2 -81l12 -39l13 -240q161 -392 532 -392q11 0 23 1l75 127q-14 205 -163 303l-37 76v37l-15 36v39l-36 240v39l12 100v37v100v38q0 169 -25 280q-72 25 -100 37q-49 -13 -92 -13q-61 0 -111 25h-12 h12h-24h12h-12q-89 -78 -103 -164zM741 309q-2 -38 -2 -71q0 -252 135 -252q59 0 144 47q70 41 115 51q216 304 216 644q0 146 -40 300q15 93 14 177q0 141 -41 251l-37 14h-27q-121 0 -212 25l-88 -100q-3 -51 -3.5 -95.5t3.5 -80.5v-279l12 -25l-12 -24v-191l12 -75 q-56 -199 -189 -316z" />
<glyph unicode="V" horiz-adv-x="1787" d="M2 1329l39 -49l12 -66l27 -51q27 -86 63 -151q25 -119 64 -217l24 -37q33 -84 39 -142q41 -66 52 -112l24 -27v-39q23 -55 51 -100q66 -211 154 -332l24 -12l91 12h51q141 0 227 12q33 80 39 129l-39 76q-68 109 -90 178l-25 52l-51 151q-45 86 -61 139l-15 39l-36 90v37 l-27 39v37q-37 70 -39 127q-18 14 -25 39q-78 213 -151 319l-39 13q-60 -8 -116 -9q-88 0 -165 21q-94 -72 -102 -166zM829 821l15 -39q55 -82 76 -139v-39l102 -227l63 -103l13 52l37 75l14 25q51 90 63 166l25 63l12 27q41 74 51 113l25 39l27 38l12 37q25 80 63 142 l15 36l51 76l76 166q1 9 1 18q0 142 -238 142q-49 0 -107 -6q-74 -68 -127 -90l-27 -37v-39l-24 -37l-13 -39l-26 -39l-13 -39q-47 -74 -63 -139l-27 -25q-17 -106 -76 -178z" />
<glyph unicode="W" horiz-adv-x="2287" d="M63 1245l37 -61l52 -164l36 -62l25 -63l25 -37l14 -49q37 -51 47 -113l27 -39l24 -86q74 -92 101 -163l12 -62v-149l12 -76q47 -45 64 -88q59 -12 100 -13h37l37 -12q106 0 176 -12q68 98 74 186q-61 88 -89 164l-36 62l-13 88q-49 90 -51 161q-74 129 -98 238l-27 39 l-10 49v37l-27 49l-12 39l-12 49l-113 313l-24 13q-67 -13 -127 -13q-84 0 -160 25q-102 -107 -102 -224q0 -13 1 -26zM750 1184l24 -27l14 -37q51 -82 62 -162l24 -14q109 -246 140 -412l24 -100q86 -133 86 -262q63 -70 88 -137q108 -17 205 -18q127 0 234 30 q12 57 12 100q-29 92 -64 152q-51 86 -73 162l-15 49l-36 49q-27 88 -37 152q-43 53 -64 100l-12 37v37l-25 37v38q-84 158 -112 250q5 35 4.5 67t-4.5 58q-49 51 -62 113l-39 12q-38 -3 -74 -3q-108 0 -200 28q-101 -136 -101 -276q0 -11 1 -23zM1499 971l27 -37l24 -88 q31 -49 37 -101l25 -24v-39q86 -125 112 -250l52 -37l61 226l12 51l27 49l10 61l27 52l12 61l12 39q22 65 25 110q106 182 125 351l-62 75q-97 -15 -184 -15t-166 15l-39 -24l-24 -37q-15 -129 -49 -215q-14 -98 -64 -186v-37z" />
<glyph unicode="X" horiz-adv-x="1607" d="M88 207q-5 -37 -5 -68q0 -150 115 -150q39 0 91 17q50 -12 94 -11q142 0 217 124q17 64 17 123q0 203 -203 340l-113 -64q-68 -196 -213 -311zM100 1331l64 -98q57 -78 125 -113l24 -39l37 -49l27 -51l86 -150l24 -36l15 -37l24 -37l49 -88q84 -143 113 -225 q145 -150 189 -314q55 -39 86 -88q82 25 155 25q91 0 170 -37q72 8 125 39l-12 73l-25 76l-51 49l-25 25l-12 27l-24 24l-113 225q-25 40 -37 74l-51 27l-76 137l-24 49q-127 164 -175 301q-162 162 -225 326q-39 4 -51 10q-38 -5 -75 -5q-104 0 -199 44h-86 q-58 -52 -59 -117q0 -23 7 -47zM852 1270l25 -37l36 -27v-37l25 -24l12 -37l27 -27l149 -211q86 115 113 226q210 178 210 283q0 67 -85 104q-111 -28 -218 -28q-81 0 -159 15q-86 -116 -135 -200z" />
<glyph unicode="Y" horiz-adv-x="1824" d="M51 1337l27 -51q61 -40 92 -92l25 -39l38 -51l27 -53l12 -39q23 -12 27 -27q102 -106 143 -221q100 -94 131 -197v-65l-14 -39v-90q-4 -176 -24 -289l51 -90q51 -11 96.5 -11t85.5 11l170 -14l66 104v53l14 39v39v39q-10 67 -11 126q0 88 23 163v90l-26 51l-25 68l-41 24 l-12 39l-27 39l-25 41l-26 51q-80 84 -105 170l-26 12l-12 39q-88 88 -119 185l-51 78q-207 54 -352 54q-21 0 -42 -1q-67 -60 -90 -146zM938 1116l27 -39l26 -12l27 -41l24 -25q49 -141 119 -223q8 -1 16 0q40 0 74 15l27 51q43 84 80 131l12 39l27 26q109 186 209 287 l12 92q-47 59 -78 78q-78 -18 -153.5 -18t-147.5 18q-76 -72 -143 -104q-59 -137 -158 -224v-51z" />
<glyph unicode="Z" horiz-adv-x="1536" d="M23 70q20 -12 24 -27q26 4 51 4q64 0 113 -29h86l49 39q55 94 100 150l201 186l37 51l39 37l37 37q57 66 100 100l37 52l88 73l25 39l39 13l36 24l25 37q63 61 125 88q29 68 76 100l12 89v36l-12 25v39l-13 24l13 199h-12q-59 0 -113 27l-27 -37l-37 -14l-24 -37l-37 -25 q-68 -121 -152 -188l-24 -13q-80 -92 -174 -125l-37 -36l-39 -27l-76 -61q-49 -68 -98 -101l-27 -37l-37 -24q-63 -104 -137 -152q-82 -131 -174 -198q-64 -183 -64 -316q1 -11 1 -22zM86 1206q-5 -22 -5 -41q0 -123 221 -123q78 0 183 15l74 -25q80 133 201 189 q12 22 24 24q63 92 140 150v61l-52 27l-24 -13l-37 13q-125 -26 -246 -27q-146 0 -280 39q-212 -32 -212 -198q0 -42 13 -91zM498 33l37 -39q32 3 56.5 3t43.5 -3q104 49 201 49h125q89 -37 153 -37q171 0 171 261q0 19 -1 40v101l-37 12l-49 12q-88 -15 -166 -15t-147 15 l-37 -24l-12 -39l-37 -25l-27 -25l-37 -24l-12 -39l-25 -12l-63 -74l-25 -27q-79 -65 -112 -110z" />
<glyph unicode="[" horiz-adv-x="280" />
<glyph unicode="\" horiz-adv-x="317" />
<glyph unicode="]" horiz-adv-x="311" />
<glyph unicode="^" horiz-adv-x="329" />
<glyph unicode="_" horiz-adv-x="489" />
<glyph unicode="`" horiz-adv-x="356" />
<glyph unicode="a" horiz-adv-x="1748" d="M-8 106q20 -35 26 -63l25 -14h41q164 -6 297 -39l51 26q37 131 90 207q42 4 84 5q132 0 254 -44q43 53 78 78v27q-20 37 -27 78q-53 66 -63 141l-53 65l-27 -14q-62 21 -118 21q-31 0 -62 -7l12 52q59 129 78 221l-78 115v53q-59 94 -63 192l-54 27q-49 -88 -90 -141 l-51 -170l-39 -39l-12 -64l-27 -39l-26 -53l-13 -39l-26 -39l-103 -282q-81 -136 -104 -261zM575 1364l13 -53l12 -51l66 -78l116 -234q33 -115 39 -180l27 -41l12 -51q12 -14 12 -39q37 -53 39 -102l52 -78l14 -78q98 -156 117 -311q173 -79 280 -79q144 0 172 142l-26 53 l-13 66q-152 186 -168 414q-45 55 -65 104l-27 102l-24 27l-15 39l-12 39l-12 24l-27 78v39q-16 12 -12 27q-20 47 -27 90q-59 84 -63 180q-65 49 -105 92q-83 -17 -158 -17t-141 17q-76 -55 -76 -141z" />
<glyph unicode="b" horiz-adv-x="1572" d="M18 506l13 -39v-303q25 -102 53 -160l51 -12q48 11 88.5 11t71.5 -11l78 12l65 68v39l27 104q-13 56 -13 130q0 14 1 30v51q15 71 15 133.5t-15 116.5v41l12 39v39q0 76 12 131v104q-6 60 -6 112.5t6 98.5q-25 97 -25 181q0 9 1 18l-39 53h-107q-60 -11 -113 -11t-98 11 q-61 -63 -78 -133l13 -209q-2 -31 -2 -60q0 -87 14 -153l-12 -117v-119l-13 -38q8 -46 8 -86t-8 -72zM571 756q6 -186 184 -187q19 0 40 2q33 -45 39 -104q-98 -41 -185 -41l-51 -51q-44 -134 -44 -222q0 -166 158 -166q26 0 56 5q40 -4 78 -4q360 0 502 319q10 61 24 107 v39l-24 172q-88 127 -107 249q104 195 107 381q-86 82 -119 170l-80 41l-39 13q-76 0 -145 26q-48 -11 -87 -10.5t-71 10.5q-233 -30 -233 -191q0 -84 63 -204q117 -12 197 -66l-27 -92h-7q-220 1 -229 -196z" />
<glyph unicode="c" horiz-adv-x="1648" d="M182 528q135 -446 570 -542q51 39 104 92q8 46 8 87q0 203 -192 269l-54 80q-33 104 -38 184q12 121 38 187q256 172 256 384q0 100 -57 210h-53q-612 -216 -612 -716q0 -111 30 -235zM948 330q-8 -67 -8 -119q0 -192 111 -192q36 0 84 20q315 49 460 330v94l-65 51 q-108 28 -172 92h-92q-68 -78 -92 -143l-27 -14q-127 -60 -199 -119zM1067 1505q-102 -118 -102 -231q0 -195 301 -377h80q109 80 225 80q21 85 21 164q0 51 -9 100l-41 12l-12 41l-27 13l-26 26q-117 90 -172 146q-13 0 -27 -1q-122 0 -211 27z" />
<glyph unicode="d" horiz-adv-x="1773" d="M18 1251q16 -82 17 -149q0 -34 -4 -64l12 -77v-107q-2 -68 -2 -123.5t2 -99.5l-12 -41l12 -92l-12 -27v-106q-1 -33 -1 -64q0 -160 27 -266l39 -39q88 9 160.5 9t130.5 -9q39 29 80 39v23q0 107 27 188l-15 80v53v51l-12 68l12 53q-2 84 -12 145v146v131q5 87 5 167 q0 202 -32 349h-39q-51 12 -106 12q-46 -18 -96 -18q-29 0 -62 6l-80 -27l-39 -172v-39zM586 1118q57 -41 106 -65q79 21 143 21q222 0 252 -259q-20 -386 -382 -386q-19 0 -39 1l-54 -51q-8 -49 -7.5 -90t7.5 -70q2 -48 2 -86.5t-2 -71.5q14 -49 15 -79l64 -2 q797 0 886 743q-54 782 -803 782q-53 0 -108 -4q-99 -123 -100 -259q0 -61 20 -124z" />
<glyph unicode="e" horiz-adv-x="1425" d="M31 1190q14 -35 14 -75q0 -13 -2 -28l12 -606q-18 -121 -18 -225.5t18 -192.5q101 -43 188 -43q137 0 242 107q0 13 1 25q0 110 -25 190v64v36q2 29 1 57q0 82 -13 146v139v37v39v37v78v37v51q-2 32 -2 62q0 89 14 153v100l-12 88l-103 15l-37 -27q-50 7 -94 7 q-74 0 -133 -19q-18 -86 -51 -139l12 -76zM600 393q-41 -95 -41 -181q0 -121 80 -224l37 12h49l39 12l39 15l51 -15l37 15h39l200 12q120 28 120 139q0 23 -5 49q8 38 8 71q0 118 -108 159l-39 -27h-102l-37 -12h-52h-36h-254q-13 -22 -25 -25zM639 948q-81 -139 -81 -225 q0 -134 194 -141q43 -7 78 -8q157 0 157 146q0 80 -47 204q-37 14 -75 13q-13 0 -25 -1q-35 -3 -67 -3q-74 0 -134 15zM649 1051h39l27 24h37l39 12h49h39h51h225l51 52q31 112 32 190q0 160 -132 176q-35 -16 -68 -16q-17 0 -34 4q-12 -15 -25 -12h-39h-37l-24 -15h-39 h-164q-111 -111 -111 -221q0 -96 84 -194z" />
<glyph unicode="f" horiz-adv-x="1468" d="M18 125l25 -92q23 -12 27 -27l39 -12l92 12l233 -12l27 51l39 66v92l-27 78l12 77v52v65v78q-8 48 -7.5 90.5t7.5 79.5l-12 39v51l-12 51l12 66l-12 51v104v39v39v105q11 61 11 113.5t-11 95.5q-31 6 -39 24q-83 -29 -164.5 -29t-161.5 29q-49 -72 -65 -117l12 -442 q0 -61 -12 -102q15 -125 15 -222q0 -41 -3 -77v-92l-12 -39l12 -52v-92zM578 1112l63 -51h80q20 3 39 3t39 -3l24 12h39h53q65 0 105 12q61 -2 102 -12l92 12q39 70 40 145q0 5 -1 11q20 70 21 121q0 143 -161 143q-25 0 -54 -4q-23 -12 -39 -12h-105q-75 -5 -139.5 -5 t-120.5 5l-77 -39v-338zM590 553l78 -27q74 20 138.5 20t121.5 -20q49 110 48 219q0 94 -36 185l-78 12q-23 -12 -39 -12h-19q-125 0 -214 -39v-78l12 -27q-18 -83 -18 -155q1 -41 6 -78z" />
<glyph unicode="g" horiz-adv-x="1732" d="M162 526q104 -469 586 -508l77 66q3 52 3 100q0 113 -15 201q-219 29 -274 221q6 174 53 299q240 156 248 391q2 18 2 34q0 143 -148 149l-63 -66q-496 -185 -497 -652q1 -110 28 -235zM891 96q20 -111 99 -111q92 0 265 150q7 4 15 5q43 0 78 -160l233 26l92 170l-12 27 v39q-40 119 -40 223q0 60 13 115l-12 65q-12 92 -53 156l-39 -13h-66h-39l-182 13l-26 -13q-100 20 -170 25q-117 -61 -118 -169q0 -5 1 -11q-2 -11 -2 -22q0 -131 250 -148q-84 -78 -176 -78h-7q-47 -47 -92 -66q-21 -71 -20 -139q0 -43 8 -84zM930 1102q176 -25 235 -158 q55 -20 90 -65q274 148 274 283q0 183 -495 343q-127 -121 -127 -271q0 -63 23 -132z" />
<glyph unicode="h" horiz-adv-x="1716" d="M18 158l52 -129l102 -39q84 33 162 33q35 0 69 -7q47 104 64 193q-26 82 -26 142q0 12 1 24v51v78v63v78v51v142v51v51v39v51q-6 18 0 37l-14 104v39q6 84 27 154l-13 78q-43 51 -90 63q-12 -23 -26 -26q-54 10 -103 10q-105 0 -180 -47l-25 -78l13 -64l-13 -77 q6 -20 0 -39v-37q5 -51 5 -92.5t-5 -75.5l13 -39v-358l12 -27l-12 -78q10 -78 10 -144q0 -96 -23 -175zM545 862q-5 -45 -5 -87q0 -127 44 -232l280 24l39 -12q63 125 63 238q0 70 -24 135q-36 -2 -70 -2q-126 0 -225 26l-26 -24zM1044 1094l15 -64l12 -219q-2 -33 -2 -61 q0 -75 14 -132l-12 -36v-129q-8 -114 -8 -207.5t8 -165.5q20 -12 25 -27q39 -14 76 -14q13 0 26 2h51q108 -25 190 -25h17l51 64l13 78v63q-27 102 -27 166l14 78q-5 56 -5 106q0 91 18 164v37q-12 18 -13 39v129l-14 39l14 39v39v100q-3 35 -2 68q0 77 15 139 q-25 88 -76 141q-85 -29 -169 -28q-63 0 -126 16l-90 -51l-15 -39v-309z" />
<glyph unicode="i" horiz-adv-x="624" d="M18 174l13 -76q25 -59 61 -98h39l39 -14q69 31 142 31q34 0 71 -7q29 102 61 164v88l-12 64l-12 88l12 24q-12 18 -12 37v152q-12 41 -12 75l12 50v51v137v49v51v52v36v52q0 63 -12 100q6 59 6 109.5t-6 91.5l-25 12q-62 -7 -119 -7q-95 0 -172 19l-61 -63v-37 q0 -82 -13 -139q6 -32 6.5 -63.5t-6.5 -61.5l13 -64l-13 -49v-352l13 -37v-313q-1 -93 -13 -152z" />
<glyph unicode="j" horiz-adv-x="1396" d="M94 514q-12 -68 -12 -128q0 -308 334 -398q22 -3 42 -3q48 0 87 15v104v37q39 94 39 168q-135 88 -156 258l-37 13q-60 -12 -112 -12.5t-95 12.5zM674 180q55 -88 51 -180l90 -12q12 16 27 12l12 27l25 12l26 12l37 27l39 12q78 78 129 105q45 102 102 153q2 68 27 129 l12 51v217l-12 207v39v166v39v30q0 151 -27 267l-75 12q-60 -14 -111 -14t-94 14q-76 -74 -105 -129q-1 -16 0 -30q0 -81 15 -138l-15 -114q16 -62 16 -106q0 -13 -1 -23l12 -52v-77q-13 -41 -13 -85q0 -9 1 -18q-18 -114 -18 -198q0 -38 3 -70l-12 -39q-80 -46 -129 -104 q0 -84 -12 -142z" />
<glyph unicode="k" horiz-adv-x="1687" d="M29 432l12 -49q-9 -82 -9 -150q0 -106 21 -184l39 -24l37 -13q49 11 93 12q63 0 112 -24h102l51 100v115q-24 105 -23 198q0 64 11 122l-12 38l12 37l-12 27l12 39q-14 88 -14 159q0 24 2 46l-14 24l14 37q-6 53 -6 101q0 114 30 206q0 92 13 154l-64 76q-72 14 -102 14 q-58 -11 -110 -11t-95 11q-66 -70 -88 -154v-63l12 -90v-193l-12 -24q12 -51 12 -99.5t-12 -93.5v-305zM539 854q18 -91 17 -165q0 -41 -5 -79l51 -51l27 -24l12 -52l25 -37q23 -12 26 -26q41 -68 88 -115l15 -39l24 -24l12 -27l27 -25l12 -38q88 -98 127 -166h90 q78 48 159 48q36 0 71 -9q163 0 163 74q0 77 -175 233l-25 37l-27 24l-24 39l-27 39l-39 27q-106 178 -202 278q45 61 88 90l14 27q12 15 24 12q129 256 320 395q66 94 76 179l-37 14l-27 12q-83 -12 -156.5 -12t-136.5 12h-14h14h-14h-25h25h-25q-18 -12 -38 -12 q-57 -86 -115 -117q-71 -123 -178 -190q-78 -131 -193 -205z" />
<glyph unicode="l" horiz-adv-x="1480" d="M18 295q0 -147 39 -250l66 -39l90 14q72 0 131 -26l66 12q53 98 63 197q-14 100 -39 170l15 39q-8 54 -9 102q0 76 21 143l-12 27v51l12 29l-12 24q-1 13 -1 26q0 64 13 118q-15 49 -15 94q0 19 3 37v102l12 262q-74 61 -144 78l-26 -26q-27 2 -54 2q-99 0 -180 -29 l-14 -63l-12 -78l12 -68v-90l-12 -39q8 -37 7.5 -73t-7.5 -70q12 -43 12 -78v-182l14 -39l-14 -39l14 -39l-14 -27v-248zM565 33q42 -39 84 -39h6l105 12h51h53h54h38l39 14h39q20 -1 39 0q94 0 168 13q50 135 50 227q0 132 -101 176q-18 -12 -39 -12q-58 -11 -113.5 -11 t-107.5 11h-51q-69 -5 -125 -5t-99 5q-120 -105 -119 -245q0 -69 29 -146z" />
<glyph unicode="m" horiz-adv-x="1822" d="M18 84q70 -83 209 -83q84 0 193 30l49 221q-10 14 -10 39v102v39v90l10 27v90l14 141q188 -152 273 -309l90 -51q214 102 214 300q0 36 -7 75l-105 63q-63 80 -90 129q-23 12 -27 27q-20 12 -24 26l-27 25l-24 27l-66 77q-43 31 -63 76q-117 104 -168 207l-39 14l-105 13 q-111 0 -206 26q-63 -76 -91 -129l25 -207l-12 -77l12 -52l-12 -440l-13 -51l13 -39zM975 1155l12 -168q131 -88 182 -192l13 -351l-13 -38l13 -39v-37q-11 -83 -11 -151t11 -122q131 -75 261 -74l138 21l14 105l27 155v90v44q0 132 -14 241l14 51v39v39v39v39q-5 93 -5 172 q0 198 30 332q-41 74 -78 116l-76 13q-52 -13 -100 -13q-70 0 -133 27l-15 -41h-51l-12 -25l-27 -24z" />
<glyph unicode="n" horiz-adv-x="1687" d="M6 981q0 -84 12 -129q28 -58 28 -101q0 -8 -1 -16v-180l-12 -39l12 -39l-12 -24l12 -39l-12 -27v-244l12 -77q116 -65 239 -65q16 0 31 1l76 39q20 92 39 141v51v39l14 39q-17 95 -16.5 179t16.5 155l-26 39q-41 33 -64 78q-51 27 -78 51l-38 90q-117 106 -168 193 q-46 -56 -64 -115zM33 1303l37 -54l26 -24l13 -27l38 -24l25 -27q47 -70 104 -115l52 -39l39 -63l63 -66q59 -94 129 -168l27 -51l24 -24q43 -76 90 -117l27 -51l39 -52l39 -39l24 -51q20 -12 25 -26l14 -39q129 -121 193 -244q44 5 87 5q107 0 198 -32l75 27q23 87 23 165 q0 47 -8 91l-39 41l-39 37l-51 39l-39 51q-82 84 -117 168l-39 39q-22 12 -25 24q-41 68 -90 117l-14 39q-16 12 -25 39l-38 39q-31 70 -66 115q-18 14 -25 38l-24 25q-12 20 -27 27l-12 39l-27 24l-51 90l-26 15q-10 18 -25 24q-63 127 -102 180l-54 27l-90 -12h-37 q-30 -2 -58 -2q-84 0 -149 14q-118 -44 -117 -155q0 -17 3 -37zM1061 864q20 -18 26 -39q92 -65 130 -153q137 -76 204 -180l39 -66q12 61 13 104l14 91l-27 102v63v144v51v39l13 90l26 283l-39 75q-75 -5 -139.5 -4.5t-118.5 4.5q-66 -27 -129 -63l-12 -90v-39 q16 -12 12 -27v-127z" />
<glyph unicode="o" horiz-adv-x="1794" d="M156 561q135 -551 659 -569l78 51q-2 53 -27 104q-6 106 -24 156l-51 66q-225 87 -226 301q0 58 17 125q35 268 272 338q13 83 13 146q0 182 -103 216q-63 -28 -123 -27h-20q-66 -39 -129 -38q-356 -292 -356 -680q0 -92 20 -189zM944 238l14 -66v-37q33 -76 39 -131 q63 0 129 14q123 104 246 129q57 41 105 52q201 304 201 577q0 344 -318 641q-182 70 -311 78l-52 -27l-26 -323q293 -117 299 -402q-37 -285 -273 -389q-20 -67 -53 -116z" />
<glyph unicode="p" horiz-adv-x="1613" d="M86 594q-13 -112 -13 -216q0 -181 40 -333l53 -51h39h39l221 12l27 66v65l-15 170l-12 51q-5 51 -5 94t5 76q-13 59 -13 112q0 10 1 19v78l12 39l-12 131l12 39l-12 39l12 39l-12 41l12 39q-2 26 -2 51q0 94 29 170l-15 80q-47 64 -116 64q-6 0 -13 -1q-67 -18 -129 -17 q-34 0 -67 5l-39 -39l-13 -65l13 -328l-13 -39v-170q-17 -98 -16 -169q0 -27 2 -52zM584 698l12 -24q18 -109 51 -209q25 -1 50 -1q619 0 735 521q-55 510 -754 510h-16q-78 -103 -78 -203q0 -81 51 -162q39 5 75 5q176 0 277 -111q-20 -215 -340 -221q-22 -66 -63 -105z " />
<glyph unicode="q" horiz-adv-x="1843" d="M256 428q76 -266 313 -377l37 -12h39l37 -12l225 -27h127l88 12l74 -12q70 12 127 12l37 -12l39 12h100q152 -25 250 -24q61 74 76 151l-64 226q-120 -13 -213 -13h-37q-12 1 -23 1q-58 0 -102 -13q-54 13 -97 13q-9 0 -17 -1h-86q-48 -3 -94 -3q-193 0 -347 52 q-88 109 -100 228q-16 65 -16 122q0 259 329 367v49l13 39l12 25q-9 65 -9 120.5t9 104.5l-76 39q-12 -15 -24 -12h-37l-189 -27q-452 -276 -452 -714q0 -148 51 -314zM1110 1106q194 -135 194 -320q0 -75 -32 -157l12 -37q-3 -32 -3 -61t3 -54q25 -14 27 -24q98 6 176.5 6 t136.5 -6q78 39 113 100q18 126 18 234q0 638 -620 669l-13 -37q7 -68 7 -129q0 -101 -19 -184z" />
<glyph unicode="r" horiz-adv-x="1650" d="M61 543q14 -67 14 -120q0 -18 -1 -34q-11 -109 -11 -199.5t11 -160.5q78 -31 116 -39q124 40 228 39h28q53 12 66 63l12 66q-23 86 -26 141l-13 51q13 87 13 154v26v39l-13 166l13 27q-6 43 -6 81.5t6 71.5v105v39v166q27 102 27 167q0 7 -1 13q-29 51 -39 78l-39 12 q-86 -9 -158.5 -9t-135.5 9q-59 -76 -78 -129q14 -81 14 -141q0 -20 -2 -39v-90q-6 -75 -6 -139t6 -117l-12 -52q-2 -66 -2 -121t2 -98zM627 530q45 -72 90 -114q74 -80 102 -156q125 -104 180 -231q58 -23 120 -23q42 0 87 10q59 -29 110 -29q77 0 134 68q-18 74 -51 142 q-57 53 -78 90q-174 121 -231 295q72 47 153 51q153 215 153 439q0 57 -10 114l-26 26q-76 143 -154 220l-155 36l-37 15l-39 -15l-27 15l-258 12q-100 -84 -100 -181q0 -91 88 -192q172 -6 270 -39q-10 -201 -172 -200q-33 0 -71 8q-12 -29 -39 -39l-13 -90v-39 q-29 -71 -28 -150q0 -21 2 -43z" />
<glyph unicode="s" horiz-adv-x="1437" d="M182 383q123 -393 468 -394q36 0 75 5q66 72 66 145q0 113 -154 230l-14 92l-39 39q-53 -5 -99 -5q-115 0 -198 29zM428 1444q-203 -196 -203 -372q0 -182 217 -341l39 -24l37 -39l53 -15l39 -39q25 -14 27 -24l25 -15q215 -82 335 -192q-117 -113 -117 -220 q0 -72 54 -143q45 -11 84 -11q111 0 186 89q193 109 195 310q0 117 -27 206q-68 68 -102 131q-76 14 -129 52q-53 29 -78 63l-51 14l-54 13l-75 51q-139 18 -234 66v77q104 117 104 243q0 78 -40 159q-20 -14 -37 -15h-105q-64 -26 -121 -25q-11 0 -22 1zM895 1159 q129 -57 156 -155l63 -27q54 9 103 9t92 -9q84 115 84 210q0 205 -396 308l-90 -39l-12 -26q3 -25 3 -47t-3 -44v-180z" />
<glyph unicode="t" horiz-adv-x="1568" d="M45 1200l41 -139l37 -14q96 22 188 22l107 -8q19 104 18 188q0 162 -69 246q-86 -36 -170 -36q-43 0 -86 9q-70 -107 -70 -214q0 -27 4 -54zM457 188l39 -165l36 -25l27 -14q80 35 157 34q37 0 72 -8q76 10 117 51v76l13 51l-13 25v41l-12 25v38v37v168l12 25 q-18 95 -18 175q0 44 6 83l12 37v129v37q22 164 22 292q0 86 -9 156l-39 27q-60 -10 -117 -10q-85 0 -164 22l-80 -37l-18 -110q29 -141 32 -250l-12 -37q0 -106 -12 -180q-12 -141 -12 -232l-15 -39v-100q3 -52 4 -97q0 -130 -28 -225zM1020 1124l24 -63q43 6 84 6 q74 0 136 -20q109 109 108 247q0 76 -33 162q-37 6 -72 6t-69 -6h-37l-90 27q-27 -35 -51 -51q0 -68 12 -103q-14 -81 -14 -153q0 -27 2 -52z" />
<glyph unicode="u" horiz-adv-x="1576" d="M8 1331q14 -39 15 -63l24 -49v-164l12 -27v-113l-12 -38q2 -78 2 -132t-2 -81l12 -39l13 -240q161 -392 532 -392q11 0 23 1l75 127q-14 205 -163 303l-37 76v37l-15 36v39l-36 240v39l12 100v37v100v38q0 169 -25 280q-72 25 -100 37q-49 -13 -92 -13q-61 0 -111 25h-12 h12h-24h12h-12q-89 -78 -103 -164zM741 309q-2 -38 -2 -71q0 -252 135 -252q59 0 144 47q70 41 115 51q216 304 216 644q0 146 -40 300q15 93 14 177q0 141 -41 251l-37 14h-27q-121 0 -212 25l-88 -100q-3 -51 -3.5 -95.5t3.5 -80.5v-279l12 -25l-12 -24v-191l12 -75 q-56 -199 -189 -316z" />
<glyph unicode="v" horiz-adv-x="1787" d="M2 1329l39 -49l12 -66l27 -51q27 -86 63 -151q25 -119 64 -217l24 -37q33 -84 39 -142q41 -66 52 -112l24 -27v-39q23 -55 51 -100q66 -211 154 -332l24 -12l91 12h51q141 0 227 12q33 80 39 129l-39 76q-68 109 -90 178l-25 52l-51 151q-45 86 -61 139l-15 39l-36 90v37 l-27 39v37q-37 70 -39 127q-18 14 -25 39q-78 213 -151 319l-39 13q-60 -8 -116 -9q-88 0 -165 21q-94 -72 -102 -166zM829 821l15 -39q55 -82 76 -139v-39l102 -227l63 -103l13 52l37 75l14 25q51 90 63 166l25 63l12 27q41 74 51 113l25 39l27 38l12 37q25 80 63 142 l15 36l51 76l76 166q1 9 1 18q0 142 -238 142q-49 0 -107 -6q-74 -68 -127 -90l-27 -37v-39l-24 -37l-13 -39l-26 -39l-13 -39q-47 -74 -63 -139l-27 -25q-17 -106 -76 -178z" />
<glyph unicode="w" horiz-adv-x="2287" d="M63 1245l37 -61l52 -164l36 -62l25 -63l25 -37l14 -49q37 -51 47 -113l27 -39l24 -86q74 -92 101 -163l12 -62v-149l12 -76q47 -45 64 -88q59 -12 100 -13h37l37 -12q106 0 176 -12q68 98 74 186q-61 88 -89 164l-36 62l-13 88q-49 90 -51 161q-74 129 -98 238l-27 39 l-10 49v37l-27 49l-12 39l-12 49l-113 313l-24 13q-67 -13 -127 -13q-84 0 -160 25q-102 -107 -102 -224q0 -13 1 -26zM750 1184l24 -27l14 -37q51 -82 62 -162l24 -14q109 -246 140 -412l24 -100q86 -133 86 -262q63 -70 88 -137q108 -17 205 -18q127 0 234 30 q12 57 12 100q-29 92 -64 152q-51 86 -73 162l-15 49l-36 49q-27 88 -37 152q-43 53 -64 100l-12 37v37l-25 37v38q-84 158 -112 250q5 35 4.5 67t-4.5 58q-49 51 -62 113l-39 12q-38 -3 -74 -3q-108 0 -200 28q-101 -136 -101 -276q0 -11 1 -23zM1499 971l27 -37l24 -88 q31 -49 37 -101l25 -24v-39q86 -125 112 -250l52 -37l61 226l12 51l27 49l10 61l27 52l12 61l12 39q22 65 25 110q106 182 125 351l-62 75q-97 -15 -184 -15t-166 15l-39 -24l-24 -37q-15 -129 -49 -215q-14 -98 -64 -186v-37z" />
<glyph unicode="x" horiz-adv-x="1607" d="M88 207q-5 -37 -5 -68q0 -150 115 -150q39 0 91 17q50 -12 94 -11q142 0 217 124q17 64 17 123q0 203 -203 340l-113 -64q-68 -196 -213 -311zM100 1331l64 -98q57 -78 125 -113l24 -39l37 -49l27 -51l86 -150l24 -36l15 -37l24 -37l49 -88q84 -143 113 -225 q145 -150 189 -314q55 -39 86 -88q82 25 155 25q91 0 170 -37q72 8 125 39l-12 73l-25 76l-51 49l-25 25l-12 27l-24 24l-113 225q-25 40 -37 74l-51 27l-76 137l-24 49q-127 164 -175 301q-162 162 -225 326q-39 4 -51 10q-38 -5 -75 -5q-104 0 -199 44h-86 q-58 -52 -59 -117q0 -23 7 -47zM852 1270l25 -37l36 -27v-37l25 -24l12 -37l27 -27l149 -211q86 115 113 226q210 178 210 283q0 67 -85 104q-111 -28 -218 -28q-81 0 -159 15q-86 -116 -135 -200z" />
<glyph unicode="y" horiz-adv-x="1824" d="M51 1337l27 -51q61 -40 92 -92l25 -39l38 -51l27 -53l12 -39q23 -12 27 -27q102 -106 143 -221q100 -94 131 -197v-65l-14 -39v-90q-4 -176 -24 -289l51 -90q51 -11 96.5 -11t85.5 11l170 -14l66 104v53l14 39v39v39q-10 67 -11 126q0 88 23 163v90l-26 51l-25 68l-41 24 l-12 39l-27 39l-25 41l-26 51q-80 84 -105 170l-26 12l-12 39q-88 88 -119 185l-51 78q-207 54 -352 54q-21 0 -42 -1q-67 -60 -90 -146zM938 1116l27 -39l26 -12l27 -41l24 -25q49 -141 119 -223q8 -1 16 0q40 0 74 15l27 51q43 84 80 131l12 39l27 26q109 186 209 287 l12 92q-47 59 -78 78q-78 -18 -153.5 -18t-147.5 18q-76 -72 -143 -104q-59 -137 -158 -224v-51z" />
<glyph unicode="z" horiz-adv-x="1536" d="M23 70q20 -12 24 -27q26 4 51 4q64 0 113 -29h86l49 39q55 94 100 150l201 186l37 51l39 37l37 37q57 66 100 100l37 52l88 73l25 39l39 13l36 24l25 37q63 61 125 88q29 68 76 100l12 89v36l-12 25v39l-13 24l13 199h-12q-59 0 -113 27l-27 -37l-37 -14l-24 -37l-37 -25 q-68 -121 -152 -188l-24 -13q-80 -92 -174 -125l-37 -36l-39 -27l-76 -61q-49 -68 -98 -101l-27 -37l-37 -24q-63 -104 -137 -152q-82 -131 -174 -198q-64 -183 -64 -316q1 -11 1 -22zM86 1206q-5 -22 -5 -41q0 -123 221 -123q78 0 183 15l74 -25q80 133 201 189 q12 22 24 24q63 92 140 150v61l-52 27l-24 -13l-37 13q-125 -26 -246 -27q-146 0 -280 39q-212 -32 -212 -198q0 -42 13 -91zM498 33l37 -39q32 3 56.5 3t43.5 -3q104 49 201 49h125q89 -37 153 -37q171 0 171 261q0 19 -1 40v101l-37 12l-49 12q-88 -15 -166 -15t-147 15 l-37 -24l-12 -39l-37 -25l-27 -25l-37 -24l-12 -39l-25 -12l-63 -74l-25 -27q-79 -65 -112 -110z" />
<glyph unicode="{" horiz-adv-x="419" />
<glyph unicode="|" horiz-adv-x="200" />
<glyph unicode="}" horiz-adv-x="358" />
<glyph unicode="~" />
<glyph unicode="&#xa1;" horiz-adv-x="307" />
<glyph unicode="&#xa2;" />
<glyph unicode="&#xa3;" />
<glyph unicode="&#xa4;" horiz-adv-x="419" />
<glyph unicode="&#xa5;" />
<glyph unicode="&#xa6;" horiz-adv-x="200" />
<glyph unicode="&#xa7;" horiz-adv-x="419" />
<glyph unicode="&#xa8;" horiz-adv-x="370" />
<glyph unicode="&#xa9;" horiz-adv-x="712" />
<glyph unicode="&#xaa;" horiz-adv-x="401" />
<glyph unicode="&#xab;" horiz-adv-x="538" />
<glyph unicode="&#xac;" horiz-adv-x="1394" />
<glyph unicode="&#xad;" />
<glyph unicode="&#x2212;" />
<glyph unicode="&#xae;" horiz-adv-x="745" />
<glyph unicode="&#xaf;" horiz-adv-x="358" />
<glyph unicode="&#x2c9;" horiz-adv-x="358" />
<glyph unicode="&#xb0;" horiz-adv-x="284" />
<glyph unicode="&#xb1;" />
<glyph unicode="&#xb2;" horiz-adv-x="299" />
<glyph unicode="&#xb3;" horiz-adv-x="299" />
<glyph unicode="&#xb4;" horiz-adv-x="460" />
<glyph unicode="&#xb5;" horiz-adv-x="419" />
<glyph unicode="&#x3bc;" horiz-adv-x="419" />
<glyph unicode="&#xb6;" horiz-adv-x="448" />
<glyph unicode="&#xb7;" horiz-adv-x="206" />
<glyph unicode="&#x2219;" horiz-adv-x="206" />
<glyph unicode="&#xb8;" horiz-adv-x="319" />
<glyph unicode="&#xb9;" horiz-adv-x="299" />
<glyph unicode="&#xba;" horiz-adv-x="401" />
<glyph unicode="&#xbb;" horiz-adv-x="538" />
<glyph unicode="&#xbc;" horiz-adv-x="784" />
<glyph unicode="&#xbd;" horiz-adv-x="784" />
<glyph unicode="&#xbe;" horiz-adv-x="784" />
<glyph unicode="&#xbf;" horiz-adv-x="565" />
<glyph unicode="&#xc0;" horiz-adv-x="1748" d="M-8 106q20 -35 26 -63l25 -14h41q164 -6 297 -39l51 26q37 131 90 207q176 18 338 -39q43 53 78 78v27q-20 37 -27 78q-53 66 -63 141l-53 65l-27 -14q-96 33 -180 14l12 52q59 129 78 221l-78 115v53q-59 94 -63 192l-54 27q-49 -88 -90 -141l-51 -170l-39 -39l-12 -64 l-27 -39l-26 -53l-13 -39l-26 -39l-103 -282q-81 -136 -104 -261zM575 1364l13 -53l12 -51l66 -78l116 -234q33 -115 39 -180l27 -41l12 -51q12 -14 12 -39q37 -53 39 -102l52 -78l14 -78q98 -156 117 -311q403 -184 452 63l-26 53l-13 66q-152 186 -168 414q-45 55 -65 104 l-27 102l-24 27l-15 39l-12 39l-12 24l-27 78v39q-16 12 -12 27q-20 47 -27 90q-59 84 -63 180q-65 49 -105 92q-166 -35 -299 0q-76 -55 -76 -141z" />
<glyph unicode="&#xc1;" horiz-adv-x="1499" d="M-2 168l27 -156l90 -26q129 29 207 14q43 63 104 102l12 66q-12 106 -12 182v76v66v77l-12 66v39q18 143 0 248l12 24q-8 39 0 78l-12 53v103q6 203 -27 325h-141q-217 12 -248 -155l27 -299l-15 -66l15 -559q2 -117 -27 -219v-39zM543 219q-27 -150 22 -199t172 5 q541 -61 559 454q-61 510 -637 494q-170 -127 -116 -311q55 -180 286 -66l78 -90q4 -98 -39 -156q-251 47 -325 -131zM582 1116h39l26 12h51l93 -12q92 12 155 0q43 12 78 12q353 -9 233 351l-38 14l-144 -14h-51q-150 16 -221 14q-65 0 -105 12h-90q-157 -201 -26 -389z " />
<glyph unicode="&#xc2;" horiz-adv-x="1572" d="M18 506l13 -39v-303q25 -102 53 -160l51 -12q96 23 160 0l78 12l65 68v39l27 104q-16 68 -12 160v51q31 141 0 250v41l12 39v39q0 76 12 131v104q-12 119 0 211q-29 109 -24 199l-39 53h-107q-121 -23 -211 0q-61 -63 -78 -133l13 -209q-6 -123 12 -213l-12 -117v-119 l-13 -38q16 -92 0 -158zM571 756q6 -205 224 -185q33 -45 39 -104q-98 -41 -185 -41l-51 -51q-72 -213 -29 -309.5t199 -73.5q424 -37 580 315q10 61 24 107v39l-24 172q-88 127 -107 249q104 195 107 381q-86 82 -119 170l-80 41l-39 13q-76 0 -145 26q-94 -20 -158 0 q-354 -45 -170 -395q117 -12 197 -66l-27 -92q-228 3 -236 -196z" />
<glyph unicode="&#xc3;" horiz-adv-x="1480" d="M18 1204q0 145 39 248l66 39l90 -12q76 0 131 24l66 -12q55 -100 63 -195q-14 -100 -39 -170l15 -39q-20 -137 12 -247l-12 -27v-51l12 -27l-12 -26q-4 -78 12 -144q-22 -71 -12 -129v-104l2 -291q-68 -33 -134 -47l-26 24q-131 -10 -234 27l-14 66l-12 77l12 66v90 l-12 41q15 74 0 141q12 43 12 78v184l14 39l-14 39l14 39l-14 27v246zM565 1464q45 41 90 39l105 -12h51h53h54h38l39 -12h39q109 2 207 -15q121 -328 -51 -403q-18 12 -39 12q-117 22 -221 0h-51q-139 10 -293 0q-109 160 -21 391z" />
<glyph unicode="&#xc4;" horiz-adv-x="1777" d="M4 31q41 -25 64 -27l63 -12l39 24h49h51l64 -12l49 12h100h64h51h100l27 -12q133 12 225 0q29 150 -24 252q-49 82 -101 127q-125 -51 -254 -12q16 111 103 151q18 61 37 101v51l-13 49q-109 150 -112 315l-51 76h-76q-57 -39 -101 -88q-14 -63 -39 -100 q-23 -195 -100 -328l-12 -39l-12 -37l-13 -39q-20 -74 -63 -112l-88 -176q-25 -111 -27 -164zM510 1341l37 -51q12 -18 12 -37q82 -160 103 -252q37 -49 36 -102q33 -37 52 -76q33 -70 49 -139l12 -49l27 -37q46 -95 61 -166l39 -24v-37q16 -12 12 -27l27 -25v-36 q68 -113 88 -203q39 -29 61 -76q170 29 304 0h126l25 76l-25 100q-94 76 -102 164q-37 66 -49 127l-27 39l-24 37l-13 24l-24 113l-103 203v39l-24 12v37q-16 12 -12 26q-96 188 -113 365q-57 57 -78 100l-88 15q-174 -37 -301 24q-70 -76 -88 -164z" />
<glyph unicode="&#xc5;" horiz-adv-x="1425" d="M31 1190q18 -47 12 -103l12 -606q-37 -243 0 -418q258 -111 430 64q3 126 -24 215v64v36q6 117 -12 203v139v37v39v37v78v37v51q-6 129 12 215v100l-12 88l-103 15l-37 -27q-132 18 -227 -12q-18 -86 -51 -139l12 -76zM600 393q-98 -229 39 -405l37 12h49l39 12l39 15 l51 -15l37 15h39l200 12q145 35 115 188q37 178 -100 230l-39 -27h-102l-37 -12h-52h-36h-254q-13 -22 -25 -25zM639 948q-207 -354 113 -366q170 -29 217 56t-29 286q-49 18 -100 12q-115 -8 -201 12zM649 1051h39l27 24h37l39 12h49h39h51h225l51 52q96 342 -100 366 q-51 -25 -102 -12q-12 -15 -25 -12h-39h-37l-24 -15h-39h-164q-207 -206 -27 -415z" />
<glyph unicode="&#xc6;" horiz-adv-x="2459" d="M201 1382q-29 -145 24 -272q315 -10 367 -344l-37 -49l-25 -62l-24 -24l-25 -25l-61 -98l-12 -39q-66 -86 -109 -160q-152 -174 -122 -247.5t243 -47.5q190 -68 231 123l25 13q95 206 258 319q4 35 10 49l12 27l13 49l-13 24l13 37q-25 92 -13 160l25 111l-25 73 q-215 203 -280 469q-57 12 -96 13q-318 5 -379 -99zM1018 174q15 -61 12 -111l74 -61l37 12q96 20 170 -12q40 28 86 37l37 61q6 92 -13 160v49l-12 49q12 100 0 174l12 62q6 92 -12 160q15 74 12 135v37v209l35 272q-37 55 -84 74h-24q-135 -33 -244 -13l-62 -110v-135 q37 -154 13 -285v-86q55 -365 -37 -678zM1483 618l22 -49l37 -14l12 -37l37 -37l37 -37l12 -49l37 -37l13 -36q20 -10 22 -23l27 -27q39 -57 59 -110q77 -65 111 -148l86 -37q168 49 293 -12q68 0 120 25q12 80 0 135l-71 86q-55 49 -76 98l-23 13l-61 88q-104 102 -145 221 q-86 71 -111 160q102 193 182 294q115 -31 207 13q59 172 37 334l-72 61q-186 -39 -342 12l-49 -12l-37 -37q-46 -83 -86 -123q-57 -96 -108 -147q-63 -121 -135 -187l-13 -73l-12 -62z" />
<glyph unicode="&#xc7;" horiz-adv-x="1644" d="M276 94q197 -129 410 -117q98 -16 147.5 26t47.5 142q8 98 -41 146.5t-154 46.5q-12 113 -49 192q-178 -33 -309 0q-216 -153 -52 -436zM276 1427q-121 -281 -93 -401.5t208 -85.5q133 -43 232 0l14 27q6 61 37 114q68 33 117 39q135 229 -39 385q-12 -16 -27 -12 q-248 20 -449 -66zM764 567l39 -37q213 -2 295 -77v-52q-256 -121 -127 -385q94 0 178 27q590 -68 424 578q-25 14 -27 24q-61 47 -90 78q162 406 56.5 598t-478.5 172q-212 -218 25 -424v-90l-64 -102q-135 12 -192 -65t-39 -245z" />
<glyph unicode="&#xc8;" horiz-adv-x="1687" d="M4 639l31 102l2 64l2 141l2 51l2 39l-12 90l-19 285l41 76q150 -12 256 -6q70 -31 127 -68l13 -90l-3 -39q-14 -12 -14 -27l-2 -127l6 -258q-20 -18 -26 -36q-94 -66 -134 -154q-141 -74 -210 -174l-39 -64q-10 51 -11 105zM47 276l39 39l41 37l51 37l41 51 q86 90 121 164l39 37q23 14 27 27q43 63 92 112l14 39q20 14 27 37l39 39q35 74 67 115q20 14 27 37l26 24q12 20 27 27l14 37l27 24l53 88l27 13q12 23 24 26q59 113 109 176l51 27l90 -16h39q121 -10 207 6q138 -55 111 -197l-39 -49l-29 -25l-12 -26l-39 -25l-27 -24 q-49 -74 -106 -113l-54 -39l-38 -61l-66 -64q-72 -104 -133 -164l-27 -51l-26 -25q-39 -66 -95 -112l-26 -53l-39 -50l-41 -39l-27 -49q-22 -12 -24 -24l-15 -39q-137 -121 -200 -240q-160 20 -285 -18l-76 26q-31 144 -6 258zM1038 303q41 193 11 334l26 39q37 27 66 76 q46 22 80 49l39 90q121 104 174 186q43 -51 59 -116q0 -78 -14 -130q-35 -66 -29 -112l-6 -182l12 -37l-14 -39l12 -27l-12 -39l10 -24l-4 -246l-16 -78q-129 -68 -273 -55l-76 39q-18 100 -34 143l2 51v39z" />
<glyph unicode="&#xc9;" horiz-adv-x="1687" d="M14 514q0 70 17 129q35 66 28 115l4 180l-12 39l15 39l-13 26l15 37l-13 27l6 246l15 75q133 70 272 58l76 -39q18 -100 35 -143v-52l-2 -39l12 -38q-39 -188 -8 -334l-29 -39q-37 -27 -65 -76q-41 -18 -78 -49l-41 -90q-113 -96 -172 -189q-47 56 -62 117zM33 193l39 51 l26 24l13 27l41 24l24 25q49 74 107 113l53 37l39 63l67 64q74 111 131 163l27 52l29 24q41 68 92 113l27 51l40 51l39 37l27 51q25 14 27 25l14 39q133 119 199 239q160 -20 284 19l76 -29q31 -144 6 -258l-39 -37l-41 -37l-51 -37l-41 -51q-86 -90 -121 -164l-39 -38 q-22 -12 -24 -25q-39 -57 -94 -113l-15 -39q-20 -14 -26 -36l-39 -39q-35 -74 -68 -115q-20 -14 -26 -37l-27 -24q-12 -20 -27 -27l-14 -37l-25 -27l-55 -88l-24 -12q-10 -18 -27 -25q-63 -119 -109 -178l-51 -24l-90 14l-39 2q-119 8 -205 -6q-137 56 -110 195zM555 1812 l119 -223l278 -14l125 237l-135 7l-121 -90l-149 90zM1061 154v39q14 12 14 24l2 129l-6 258q25 20 29 37q92 63 131 152q139 72 211 176l41 61q10 -51 10 -102l10 -90l-28 -103l-2 -63l-5 -144l-2 -51v-39l11 -90l18 -282l-41 -76q-150 12 -256 6q-70 31 -127 67z" />
<glyph unicode="&#xca;" horiz-adv-x="1687" d="M29 432l12 -49q-23 -207 12 -334l39 -24l37 -13q121 29 205 -12h102l51 100v115q-40 178 -12 320l-12 38l12 37l-12 27l12 39q-18 117 -12 205l-14 24l14 37q-18 175 24 307q0 92 13 154l-64 76q-72 14 -102 14q-119 -23 -205 0q-66 -70 -88 -154v-63l12 -90v-193 l-12 -24q25 -102 0 -193v-305zM539 854q27 -141 12 -244l51 -51l27 -24l12 -52l25 -37q23 -12 26 -26q41 -68 88 -115l15 -39l24 -24l12 -27l27 -25l12 -38q88 -98 127 -166h90q113 70 230 39q332 0 -12 307l-25 37l-27 24l-24 39l-27 39l-39 27q-106 178 -202 278 q45 61 88 90l14 27q12 15 24 12q129 256 320 395q66 94 76 179l-37 14l-27 12q-166 -25 -293 0h-14h14h-14h-25h25h-25q-18 -12 -38 -12q-57 -86 -115 -117q-71 -123 -178 -190q-78 -131 -193 -205z" />
<glyph unicode="&#xcb;" horiz-adv-x="1959" d="M-2 78l51 -66h37h39q154 49 305 15l66 12l51 63l12 39l25 88q47 92 63 166l15 39l75 139l76 129v37q-34 74 -49 129q-25 14 -27 25q-33 74 -39 102q-61 61 -63 140l-37 51h-90l-27 -51l-24 -25l-64 -205l-12 -63l-12 -37l-27 -39l-25 -51l-26 -39l-12 -25l-13 -39 l-12 -24l-27 -27q-53 -162 -114 -254l-64 -51q-41 -115 -51 -178zM647 1327l15 -27q84 -113 114 -202l76 -142l27 -63l88 -217l39 -37l24 -117q57 -57 78 -100v-39q45 -55 49 -115l117 -229l49 -39q207 29 371 -12q76 55 75 127l-51 78q-94 106 -127 202l-12 39l-12 37 l-27 41l-12 25q-31 88 -78 151q-37 65 -49 117q-37 80 -39 139l-25 51q-20 14 -26 37q-51 70 -64 129l-12 37l-12 27q-59 176 -129 280q-221 -39 -396 0q-69 -76 -51 -178z" />
<glyph unicode="&#xcc;" horiz-adv-x="1822" d="M18 84q111 -133 402 -53l49 221q-10 14 -10 39v102v39v90l10 27v90l14 141q188 -152 273 -309l90 -51q252 121 207 375l-105 63q-63 80 -90 129q-23 12 -27 27q-20 12 -24 26l-27 25l-24 27l-66 77q-43 31 -63 76q-117 104 -168 207l-39 14l-105 13q-111 0 -206 26 q-63 -76 -91 -129l25 -207l-12 -77l12 -52l-12 -440l-13 -51l13 -39zM975 1155l12 -168q131 -88 182 -192l13 -351l-13 -38l13 -39v-37q-20 -166 0 -273q201 -115 399 -53l14 105l27 155v90q2 158 -14 285l14 51v39v39v39v39q-16 319 25 504q-41 74 -78 116l-76 13 q-127 -31 -233 14l-15 -41h-51l-12 -25l-27 -24z" />
<glyph unicode="&#xcd;" horiz-adv-x="1716" d="M18 158l52 -129l102 -39q121 49 231 26q47 104 64 193q-31 98 -25 166v51v78v63v78v51v142v51v51v39v51q-6 18 0 37l-14 104v39q6 84 27 154l-13 78q-43 51 -90 63q-12 -23 -26 -26q-172 33 -283 -37l-25 -78l13 -64l-13 -77q6 -20 0 -39v-37q8 -100 0 -168l13 -39v-358 l12 -27l-12 -78q24 -190 -13 -319zM545 862q-18 -180 39 -319l280 24l39 -12q102 203 39 373q-169 -9 -295 24l-26 -24zM1044 1094l15 -64l12 -219q-6 -117 12 -193l-12 -36v-129q-16 -227 0 -373q20 -12 25 -27q51 -18 102 -12h51q121 -29 207 -25l51 64l13 78v63 q-27 102 -27 166l14 78q-15 157 13 270v37q-12 18 -13 39v129l-14 39l14 39v39v100q-10 117 13 207q-25 88 -76 141q-150 -51 -295 -12l-90 -51l-15 -39v-309z" />
<glyph unicode="&#xce;" horiz-adv-x="1794" d="M156 561q135 -551 659 -569l78 51q-2 53 -27 104q-6 106 -24 156l-51 66q-285 111 -209 426q35 268 272 338q49 315 -90 362q-76 -33 -143 -27q-66 -39 -129 -38q-440 -361 -336 -869zM944 238l14 -66v-37q33 -76 39 -131q63 0 129 14q123 104 246 129q57 41 105 52 q455 684 -117 1218q-182 70 -311 78l-52 -27l-26 -323q293 -117 299 -402q-37 -285 -273 -389q-20 -67 -53 -116z" />
<glyph unicode="&#xcf;" horiz-adv-x="1552" d="M147 758q2 -53 15 -101l22 -75l-12 -25v-37q2 -133 27 -250l-37 -100q23 -47 10 -86l51 -64l37 -12l88 27q147 -20 223 -15q49 80 52 150q-10 72 -39 127q15 77 0 135v37v39v49q20 205 14 311q-23 57 -63 76q-147 -51 -287 -12l-86 -37v-39q-21 -53 -15 -98zM184 1057 q74 4 140 -13q137 27 284 -14q231 31 414 -37v-98l-14 -51l-13 -49l-12 -189q23 -98 12 -174v-174q-10 -115 0 -199l52 -63q150 33 274 -12q72 18 125 51l10 37v37q-27 109 -10 213q-27 111 -27 174v49q0 98 13 162q-25 102 -13 176v37v36q-37 224 0 387v37l-37 74l-61 14 l-51 -14q-115 -2 -211 14h-174q-74 -4 -140 13q-168 -12 -274 12q-129 -27 -235 12q-204 -208 -52 -448z" />
<glyph unicode="&#xd0;" horiz-adv-x="1613" d="M86 594q-37 -309 27 -549l53 -51h39h39l221 12l27 66v65l-15 170l-12 51q-10 102 0 170q-16 72 -12 131v78l12 39l-12 131l12 39l-12 39l12 39l-12 41l12 39q-10 125 27 221l-15 80q-51 70 -129 63q-104 -28 -196 -12l-39 -39l-13 -65l13 -328l-13 -39v-170 q-22 -133 -14 -221zM584 698l12 -24q18 -109 51 -209q664 -23 785 520q-55 516 -770 510q-141 -186 -27 -365q229 29 352 -106q-20 -215 -340 -221q-22 -66 -63 -105z" />
<glyph unicode="&#xd1;" horiz-adv-x="1648" d="M182 528q135 -446 570 -542q51 39 104 92q46 276 -184 356l-54 80q-33 104 -38 184q12 121 38 187q375 252 199 594h-53q-748 -265 -582 -951zM948 330q-25 -195 22.5 -267.5t164.5 -23.5q315 49 460 330v94l-65 51q-108 28 -172 92h-92q-68 -78 -92 -143l-27 -14 q-127 -60 -199 -119zM1067 1505q-276 -319 199 -608h80q109 80 225 80q35 141 12 264l-41 12l-12 41l-27 13l-26 26q-117 90 -172 146q-140 -5 -238 26z" />
<glyph unicode="&#xd2;" horiz-adv-x="1568" d="M45 1200l41 -139l37 -14q154 35 295 14q55 307 -51 434q-129 -55 -256 -27q-86 -133 -66 -268zM457 188l39 -165l36 -25l27 -14q119 51 229 26q76 10 117 51v76l13 51l-13 25v41l-12 25v38v37v168l12 25q-29 150 -12 258l12 37v129v37q37 273 13 448l-39 27 q-150 -25 -281 12l-80 -37l-18 -110q29 -141 32 -250l-12 -37q0 -106 -12 -180q-12 -141 -12 -232l-15 -39v-100q13 -195 -24 -322zM1020 1124l24 -63q123 18 220 -14q168 168 75 409q-74 12 -141 0h-37l-90 27q-27 -35 -51 -51q0 -68 12 -103q-18 -111 -12 -205z" />
<glyph unicode="&#xd3;" horiz-adv-x="1757" d="M-6 1352q49 -55 63 -115l27 -14l10 -37l66 -27l12 -39q68 -78 90 -127q111 -111 141 -229q41 -47 64 -105q221 -55 307 308l-51 116q-125 131 -168 281q-23 31 -37 63l-51 27q-233 -23 -397 51q-70 -69 -76 -153zM262 264q-6 -158 37 -268l51 -14l66 14l51 24l154 -12 q92 22 165 12q84 33 142 39l39 52l12 24l39 117q58 190 153 319v37q41 70 52 117l24 49l13 27q43 66 53 114q66 84 88 168l26 13q57 125 103 180q18 95 12 166l-39 24q-143 -31 -268 13l-64 -52l-51 -36v-66q-31 -33 -39 -63l-24 -39l-27 -52q-25 -70 -63 -127l-27 -63 l-25 -27l-14 -39l-24 -51l-13 -37l-26 -26l-52 -88l-114 -232q-45 -41 -76 -78q-127 -61 -256 -51q-37 -53 -78 -88z" />
<glyph unicode="&#xd4;" horiz-adv-x="1832" d="M352 1157q-319 -872 353 -1073q53 10 83 20q43 193 -10 340q-96 23 -180 66l-33 94q-12 393 213 363q31 45 53 63q23 238 -69 318q-209 -106 -336 -125q-35 -46 -74 -66zM854 455l10 -41v-170q6 -16 0 -33v-86q-18 -123 10 -223q49 -18 117 -31l23 10l20 -10 q96 27 191 10q70 63 75 150v63l-20 53v64l-12 63l-11 64l11 86l-21 170l10 20q-10 16 -10 33q25 127 0 234v53v33v43v30v54v86v53v31v75q9 141 0 234l-33 33q-162 -33 -296 0l-54 -129v-31q10 -16 10 -33v-244l-10 -75v-117v-53q6 -72 -10 -140v-329zM1321 1114 q29 -55 33 -117q215 -55 180 -266q31 -256 -170 -393q-16 -127 -10 -213l63 -53q463 57 447 479q59 477 -267 756l-178 41l-71 -31q-13 -68 -27 -203z" />
<glyph unicode="&#xd5;" horiz-adv-x="1607" d="M88 207q-18 -139 32 -189.5t169 -11.5q213 -49 311 113q74 287 -186 463l-113 -64q-68 -196 -213 -311zM100 1331l64 -98q57 -78 125 -113l24 -39l37 -49l27 -51l86 -150l24 -36l15 -37l24 -37l49 -88q84 -143 113 -225q145 -150 189 -314q55 -39 86 -88q181 55 325 -12 q72 8 125 39l-12 73l-25 76l-51 49l-25 25l-12 27l-24 24l-113 225q-25 40 -37 74l-51 27l-76 137l-24 49q-127 164 -175 301q-162 162 -225 326q-39 4 -51 10q-145 -20 -274 39h-86q-81 -70 -52 -164zM852 1270l25 -37l36 -27v-37l25 -24l12 -37l27 -27l149 -211 q86 115 113 226q344 291 125 387q-195 -49 -377 -13q-86 -116 -135 -200z" />
<glyph unicode="&#xd6;" horiz-adv-x="1662" d="M131 1352l12 -127l15 -115q15 -101 12 -178q-20 -227 12 -383l64 -51q141 37 229 14q78 14 127 61l14 52q2 92 -26 153v103v39q3 117 -12 202q40 178 -13 332l-39 12q-164 -14 -293 27q-12 -15 -24 -12l-78 -90v-39zM209 27h88l25 12h38h166h142q276 35 483 -39 q-8 -133 0 -215q242 -84 343 -31t65 246q63 229 -39 410h-37l-39 -15h-37h-41l-37 15q-195 -10 -317 12l-39 -12h-76l-27 12l-39 -12q-126 18 -215 12l-38 12q-194 -25 -345 12q-198 -196 -24 -419zM883 1276l14 -39l12 -39q-2 -150 13 -254q-45 -221 -13 -383 q236 -74 432 0l15 64l10 63l-10 141v39v140v39v51v37q-4 162 10 256q-25 76 -61 114h-39q-143 -47 -293 -12l-64 -51l-12 -90z" />
<glyph unicode="&#xd7;" horiz-adv-x="1550" d="M139 1133q-80 -369 219 -541q152 -90 295 -78q123 -59 181.5 1t52.5 243q-16 86 -51 155q-170 6 -285 76l-12 39v105l-13 24q41 152 13 297q-25 14 -27 25q-152 -23 -256 26q-223 -120 -117 -372zM950 115l78 -129q164 33 270 26q86 53 115 127q-12 20 -12 39l-27 144 l-10 282v51v52l10 38l-10 52v51v39v51q-18 12 -14 27q12 123 0 204l14 27v102q35 74 25 144l-39 24l-39 13q-168 -18 -310 14q-41 -88 -51 -168v-129l13 -63v-168l-13 -39q18 -139 0 -244q6 -18 0 -39l13 -39v-78l14 -39l-14 -51q-1 -194 -13 -321z" />
<glyph unicode="&#xd8;" horiz-adv-x="2158" d="M16 100q27 -68 66 -116q119 16 182 14l51 12h183l39 13l182 -13q12 16 26 13l39 -13q98 14 168 0q92 12 158 0l39 13q96 0 156 -13h38l39 13l39 -13q98 -6 168 13l39 -13q176 10 287 -26q82 188 39 352l-78 39l-66 -15l-90 15q-98 6 -182 -15l-51 15h-78l-41 12h-39h-219 h-41h-156q-168 -12 -284 12l-54 -12l-38 -12l-52 12q-120 -22 -221 0l-194 -12q-68 -146 -54 -275zM16 659l15 -77l24 -78l39 -27q164 39 326 15q27 27 39 51l12 39q-18 78 -12 143l-13 51v66l13 26q-25 154 -13 260q47 174 25 324l-51 27l-27 14q-156 -39 -284 0 q-53 -55 -78 -119q18 -119 12 -221q-2 -37 0 -51l-12 -51v-236q-1 -88 -15 -156zM745 608l39 -116l39 -15q156 39 273 27q68 -10 104 39l12 53v51l-12 51v54l-12 51q18 94 12 182v39v104q40 187 0 338l-26 13q-182 -33 -338 14q-53 -53 -78 -119v-155l12 -39l-12 -39 q18 -53 12 -105v-182q-6 -84 -25 -129q15 -71 0 -117zM1499 516l39 -24q94 20 168 12q125 25 209 12l51 66l14 65q-45 152 -38 273l12 26q-16 12 -12 27l12 39v39v39q0 98 12 155v78q0 71 -12 129l-39 27q-190 -23 -326 26q-47 -47 -63 -92l-15 -102l-12 -39q18 -70 12 -144 v-38q20 -51 15 -105l-15 -39v-155q-28 -166 -12 -275z" />
<glyph unicode="&#xd9;" horiz-adv-x="2344" d="M115 561l24 -76l39 -14h78q111 37 207 14q66 0 102 37l15 66q-2 106 -27 194v156q0 92 12 154q-4 113 27 192q-8 84 -27 156l-39 26q-195 -10 -321 39q-61 -31 -90 -65q-33 -227 37 -414v-258l-13 -25zM152 45l245 -51l52 12h38q150 -12 246 0h51h54l51 14h39h90h78 q121 -25 207 0h141h39l24 -14q14 18 27 14q115 -18 207 -14l26 -12q23 -127 64 -195l39 -12q100 33 168 27q243 -46 141 282q37 188 0 324l-51 12q-92 -29 -168 -24l-64 12h-53l-51 -12h-63h-54h-141h-39h-39q-225 -31 -387 0q-14 -16 -25 -15h-104h-63h-39l-66 -12h-78h-51 l-39 12h-258l-27 15q-53 12 -114 38q-174 -204 -53 -401zM862 1272q20 -82 15 -142l12 -38q-23 -115 0 -195q-40 -209 0 -375l39 -12h39q174 6 297 -25l51 64q0 37 12 65l-12 37l-12 183v141v131v37v39l12 258l-27 39q-94 -6 -153 0q-92 -12 -195 14l-63 -53zM1599 1247 q25 -74 25 -131v-205q-12 -61 -12 -143q-12 -137 0 -231q63 -39 117 -39q135 47 243 12q27 35 66 51l12 27q2 57 14 129q-37 98 -26 207q16 133 12 219q33 166 14 284l-39 25l-38 14q-152 -18 -273 27q-82 -57 -115 -129v-117z" />
<glyph unicode="&#xda;" horiz-adv-x="1757" d="M47 1133q92 -111 219 -91l66 -63v-143q20 -51 12 -103l12 -465l-39 -12l27 -41q-8 -98 27 -178l39 -27l63 -12q135 37 246 -14q53 45 90 65l39 141q-16 68 -12 105q-53 102 -54 192l-12 78q39 74 51 129q-12 77 -12 129l12 39q-6 96 15 180v91q-12 102 0 182l-39 168 l-39 -15l-39 15h-39h-39q-49 -10 -90 0h-39l-90 -15h-234l-75 27q-109 -163 -66 -362zM899 371q-66 -223 -21.5 -313.5t201.5 -47.5q510 0 531 477q-6 258 -180 414l-54 12l-24 15h-39h-39q-211 29 -324 63q-168 -182 -39 -438q170 55 273 -66q-80 -156 -234 -90z" />
<glyph unicode="&#xdb;" horiz-adv-x="1957" d="M4 244q29 -92 27 -156l26 -51q291 -70 400 78l12 39q-61 242 -12 450l-13 51l13 27v39l-13 39l13 24v39q-16 141 -13 234l-26 78q82 158 39 309l-78 39h-37q-150 -8 -260 0q-47 -98 -51 -183q29 -78 26 -129l-14 -141q20 -80 14 -129l-14 -39v-246l-12 -90 q-2 -94 -13 -153q2 -68 -14 -129zM508 139l78 -141q532 -6 579 465q-16 213 -114 360h-39l-27 15l-39 12l-102 24l-156 27l-76 -27q-147 -313 154 -387v-90q-82 -63 -180 -63q-70 -97 -78 -195zM1309 190l39 -165l77 -54q121 66 232 39l90 39l27 78q-8 104 -39 192v78v54 v165v78v51q-2 100 12 168q-8 233 27 402q-29 82 -27 153l-39 27q-158 -53 -297 0q-70 -47 -90 -102v-129l12 -54l27 -852q-12 -98 -51 -168z" />
<glyph unicode="&#xdc;" horiz-adv-x="1357" d="M35 154q61 242 12 450l12 51l-12 27v39l12 39l-12 24v39q16 141 12 234l27 78q-82 158 -39 309l78 39h39q150 -8 258 0q47 -98 51 -183q-29 -78 -27 -129l15 -141q-20 -80 -15 -129l15 -39v-246l12 -90q2 -94 12 -153q-2 -68 15 -129q-29 -92 -27 -156l-27 -51 q-291 -70 -399 78zM537 758l77 141q535 6 580 -463q-15 -212 -117 -362h-37l-26 -13l-39 -14l-103 -24l-155 -25l-78 25q-147 313 156 387v90q-84 66 -181 65q-69 97 -77 193z" />
<glyph unicode="&#xdd;" horiz-adv-x="1648" d="M-2 238q45 -51 63 -91q371 -207 496 -146.5t4 390.5q-195 -31 -268 117l-64 12q-94 -100 -204 -141q-27 -86 -27 -141zM49 1122l64 -75q61 -35 90 -91l90 -77l78 26l12 27l39 10q89 83 153 129q96 147 52 283q25 133 -103 141l-26 -27l-90 -12l-25 -24l-39 -27 q-162 -66 -244 -127v-41q-45 -58 -51 -115zM498 725q43 -145 129 -217q180 43 319 0q-86 -143 -244 -193q-58 -154 0 -295l39 -14q66 8 129 27q113 -23 193 0q84 70 166 78q231 397 231 794q-242 567 -653 578q-145 -145 -78 -334q166 -90 232 -231q-193 -51 -347 14 l-26 -27l-13 -26l-26 -13q-10 -88 -51 -141z" />
<glyph unicode="&#xde;" horiz-adv-x="2408" d="M2 203l12 -86l15 -74l61 -39q141 18 248 -12l61 24l27 101l-27 86v250q68 72 162 49q80 236 12 434l-36 12q-84 -18 -150 0v37v39q9 58 0 98q37 180 0 324q-22 12 -25 24q-102 -4 -186 25q-92 -43 -147 -86l-15 -76l15 -61l-15 -76l15 -459q-3 -31 0 -49v-39 q-16 -176 -15 -260q6 -108 -12 -186zM723 414q219 -449 696 -422l49 98v39q-6 18 0 37q-37 68 -36 149l-37 37q-285 39 -248 348q0 303 272 361q55 111 62 199q-52 83 -62 159q-119 -10 -198 0q-12 -14 -27 -10q-18 -12 -37 -12q-104 -80 -211 -113q-334 -405 -223 -870z M1554 340q-35 -174 15 -324l98 -24q596 209 522 672q12 666 -596 782q-246 -366 160 -510l14 -62q43 -117 50 -198q-23 -250 -238 -299z" />
<glyph unicode="&#xdf;" horiz-adv-x="1650" d="M51 55q18 74 51 142q57 53 78 90q174 121 232 295q-72 47 -156 51q-190 267 -141 553l26 26q76 143 154 220l156 36l36 15l39 -15l27 15l258 12q195 -164 12 -373q-172 -6 -270 -39q12 -242 244 -192q12 -29 39 -39l12 -90v-39q37 -90 26 -193q-47 -72 -90 -114 q-74 -80 -102 -156q-125 -104 -180 -231q-96 -37 -207 -13q-150 -74 -244 39zM977 158q23 86 27 141l12 51q-14 104 -12 180v39l12 166l-12 27q12 86 0 153v105v39v166q-29 111 -27 180q29 51 39 78l39 12q170 -18 295 0q59 -76 77 -129q-20 -115 -14 -180v-90 q12 -150 0 -256l14 -52q4 -133 0 -219l13 -26q-18 -89 -13 -154q23 -219 0 -360q-78 -31 -116 -39q-141 45 -256 39q-53 12 -66 63z" />
<glyph unicode="&#xe0;" horiz-adv-x="1748" d="M-8 106q20 -35 26 -63l25 -14h41q164 -6 297 -39l51 26q37 131 90 207q176 18 338 -39q43 53 78 78v27q-20 37 -27 78q-53 66 -63 141l-53 65l-27 -14q-96 33 -180 14l12 52q59 129 78 221l-78 115v53q-59 94 -63 192l-54 27q-49 -88 -90 -141l-51 -170l-39 -39l-12 -64 l-27 -39l-26 -53l-13 -39l-26 -39l-103 -282q-81 -136 -104 -261zM575 1364l13 -53l12 -51l66 -78l116 -234q33 -115 39 -180l27 -41l12 -51q12 -14 12 -39q37 -53 39 -102l52 -78l14 -78q98 -156 117 -311q403 -184 452 63l-26 53l-13 66q-152 186 -168 414q-45 55 -65 104 l-27 102l-24 27l-15 39l-12 39l-12 24l-27 78v39q-16 12 -12 27q-20 47 -27 90q-59 84 -63 180q-65 49 -105 92q-166 -35 -299 0q-76 -55 -76 -141z" />
<glyph unicode="&#xe1;" horiz-adv-x="1499" d="M-2 168l27 -156l90 -26q129 29 207 14q43 63 104 102l12 66q-12 106 -12 182v76v66v77l-12 66v39q18 143 0 248l12 24q-8 39 0 78l-12 53v103q6 203 -27 325h-141q-217 12 -248 -155l27 -299l-15 -66l15 -559q2 -117 -27 -219v-39zM543 219q-27 -150 22 -199t172 5 q541 -61 559 454q-61 510 -637 494q-170 -127 -116 -311q55 -180 286 -66l78 -90q4 -98 -39 -156q-251 47 -325 -131zM582 1116h39l26 12h51l93 -12q92 12 155 0q43 12 78 12q353 -9 233 351l-38 14l-144 -14h-51q-150 16 -221 14q-65 0 -105 12h-90q-157 -201 -26 -389z " />
<glyph unicode="&#xe2;" horiz-adv-x="1572" d="M18 506l13 -39v-303q25 -102 53 -160l51 -12q96 23 160 0l78 12l65 68v39l27 104q-16 68 -12 160v51q31 141 0 250v41l12 39v39q0 76 12 131v104q-12 119 0 211q-29 109 -24 199l-39 53h-107q-121 -23 -211 0q-61 -63 -78 -133l13 -209q-6 -123 12 -213l-12 -117v-119 l-13 -38q16 -92 0 -158zM571 756q6 -205 224 -185q33 -45 39 -104q-98 -41 -185 -41l-51 -51q-72 -213 -29 -309.5t199 -73.5q424 -37 580 315q10 61 24 107v39l-24 172q-88 127 -107 249q104 195 107 381q-86 82 -119 170l-80 41l-39 13q-76 0 -145 26q-94 -20 -158 0 q-354 -45 -170 -395q117 -12 197 -66l-27 -92q-228 3 -236 -196z" />
<glyph unicode="&#xe3;" horiz-adv-x="1480" d="M18 1204q0 145 39 248l66 39l90 -12q76 0 131 24l66 -12q55 -100 63 -195q-14 -100 -39 -170l15 -39q-20 -137 12 -247l-12 -27v-51l12 -27l-12 -26q-4 -78 12 -144q-22 -71 -12 -129v-104l2 -291q-68 -33 -134 -47l-26 24q-131 -10 -234 27l-14 66l-12 77l12 66v90 l-12 41q15 74 0 141q12 43 12 78v184l14 39l-14 39l14 39l-14 27v246zM565 1464q45 41 90 39l105 -12h51h53h54h38l39 -12h39q109 2 207 -15q121 -328 -51 -403q-18 12 -39 12q-117 22 -221 0h-51q-139 10 -293 0q-109 160 -21 391z" />
<glyph unicode="&#xe4;" horiz-adv-x="1777" d="M4 31q41 -25 64 -27l63 -12l39 24h49h51l64 -12l49 12h100h64h51h100l27 -12q133 12 225 0q29 150 -24 252q-49 82 -101 127q-125 -51 -254 -12q16 111 103 151q18 61 37 101v51l-13 49q-109 150 -112 315l-51 76h-76q-57 -39 -101 -88q-14 -63 -39 -100 q-23 -195 -100 -328l-12 -39l-12 -37l-13 -39q-20 -74 -63 -112l-88 -176q-25 -111 -27 -164zM510 1341l37 -51q12 -18 12 -37q82 -160 103 -252q37 -49 36 -102q33 -37 52 -76q33 -70 49 -139l12 -49l27 -37q46 -95 61 -166l39 -24v-37q16 -12 12 -27l27 -25v-36 q68 -113 88 -203q39 -29 61 -76q170 29 304 0h126l25 76l-25 100q-94 76 -102 164q-37 66 -49 127l-27 39l-24 37l-13 24l-24 113l-103 203v39l-24 12v37q-16 12 -12 26q-96 188 -113 365q-57 57 -78 100l-88 15q-174 -37 -301 24q-70 -76 -88 -164z" />
<glyph unicode="&#xe5;" horiz-adv-x="1425" d="M31 1190q18 -47 12 -103l12 -606q-37 -243 0 -418q258 -111 430 64q3 126 -24 215v64v36q6 117 -12 203v139v37v39v37v78v37v51q-6 129 12 215v100l-12 88l-103 15l-37 -27q-132 18 -227 -12q-18 -86 -51 -139l12 -76zM600 393q-98 -229 39 -405l37 12h49l39 12l39 15 l51 -15l37 15h39l200 12q145 35 115 188q37 178 -100 230l-39 -27h-102l-37 -12h-52h-36h-254q-13 -22 -25 -25zM639 948q-207 -354 113 -366q170 -29 217 56t-29 286q-49 18 -100 12q-115 -8 -201 12zM649 1051h39l27 24h37l39 12h49h39h51h225l51 52q96 342 -100 366 q-51 -25 -102 -12q-12 -15 -25 -12h-39h-37l-24 -15h-39h-164q-207 -206 -27 -415z" />
<glyph unicode="&#xe6;" horiz-adv-x="2459" d="M201 1382q-29 -145 24 -272q315 -10 367 -344l-37 -49l-25 -62l-24 -24l-25 -25l-61 -98l-12 -39q-66 -86 -109 -160q-152 -174 -122 -247.5t243 -47.5q190 -68 231 123l25 13q95 206 258 319q4 35 10 49l12 27l13 49l-13 24l13 37q-25 92 -13 160l25 111l-25 73 q-215 203 -280 469q-57 12 -96 13q-318 5 -379 -99zM1018 174q15 -61 12 -111l74 -61l37 12q96 20 170 -12q40 28 86 37l37 61q6 92 -13 160v49l-12 49q12 100 0 174l12 62q6 92 -12 160q15 74 12 135v37v209l35 272q-37 55 -84 74h-24q-135 -33 -244 -13l-62 -110v-135 q37 -154 13 -285v-86q55 -365 -37 -678zM1483 618l22 -49l37 -14l12 -37l37 -37l37 -37l12 -49l37 -37l13 -36q20 -10 22 -23l27 -27q39 -57 59 -110q77 -65 111 -148l86 -37q168 49 293 -12q68 0 120 25q12 80 0 135l-71 86q-55 49 -76 98l-23 13l-61 88q-104 102 -145 221 q-86 71 -111 160q102 193 182 294q115 -31 207 13q59 172 37 334l-72 61q-186 -39 -342 12l-49 -12l-37 -37q-46 -83 -86 -123q-57 -96 -108 -147q-63 -121 -135 -187l-13 -73l-12 -62z" />
<glyph unicode="&#xe7;" horiz-adv-x="1644" d="M276 94q197 -129 410 -117q98 -16 147.5 26t47.5 142q8 98 -41 146.5t-154 46.5q-12 113 -49 192q-178 -33 -309 0q-216 -153 -52 -436zM276 1427q-121 -281 -93 -401.5t208 -85.5q133 -43 232 0l14 27q6 61 37 114q68 33 117 39q135 229 -39 385q-12 -16 -27 -12 q-248 20 -449 -66zM764 567l39 -37q213 -2 295 -77v-52q-256 -121 -127 -385q94 0 178 27q590 -68 424 578q-25 14 -27 24q-61 47 -90 78q162 406 56.5 598t-478.5 172q-212 -218 25 -424v-90l-64 -102q-135 12 -192 -65t-39 -245z" />
<glyph unicode="&#xe8;" horiz-adv-x="1687" d="M14 514q0 70 17 129q35 66 28 115l4 180l-12 39l15 39l-13 26l15 37l-13 27l6 246l15 75q133 70 272 58l76 -39q18 -100 35 -143v-52l-2 -39l12 -38q-39 -188 -8 -334l-29 -39q-37 -27 -65 -76q-41 -18 -78 -49l-41 -90q-113 -96 -172 -189q-47 56 -62 117zM33 193l39 51 l26 24l13 27l41 24l24 25q49 74 107 113l53 37l39 63l67 64q74 111 131 163l27 52l29 24q41 68 92 113l27 51l40 51l39 37l27 51q25 14 27 25l14 39q133 119 199 239q160 -20 284 19l76 -29q31 -144 6 -258l-39 -37l-41 -37l-51 -37l-41 -51q-86 -90 -121 -164l-39 -38 q-22 -12 -24 -25q-39 -57 -94 -113l-15 -39q-20 -14 -26 -36l-39 -39q-35 -74 -68 -115q-20 -14 -26 -37l-27 -24q-12 -20 -27 -27l-14 -37l-25 -27l-55 -88l-24 -12q-10 -18 -27 -25q-63 -119 -109 -178l-51 -24l-90 14l-39 2q-119 8 -205 -6q-137 56 -110 195zM1061 154 v39q14 12 14 24l2 129l-6 258q25 20 29 37q92 63 131 152q139 72 211 176l41 61q10 -51 10 -102l10 -90l-28 -103l-2 -63l-5 -144l-2 -51v-39l11 -90l18 -282l-41 -76q-150 12 -256 6q-70 31 -127 67z" />
<glyph unicode="&#xe9;" horiz-adv-x="1687" d="M14 514q0 70 17 129q35 66 28 115l4 180l-12 39l15 39l-13 26l15 37l-13 27l6 246l15 75q133 70 272 58l76 -39q18 -100 35 -143v-52l-2 -39l12 -38q-39 -188 -8 -334l-29 -39q-37 -27 -65 -76q-41 -18 -78 -49l-41 -90q-113 -96 -172 -189q-47 56 -62 117zM33 193l39 51 l26 24l13 27l41 24l24 25q49 74 107 113l53 37l39 63l67 64q74 111 131 163l27 52l29 24q41 68 92 113l27 51l40 51l39 37l27 51q25 14 27 25l14 39q133 119 199 239q160 -20 284 19l76 -29q31 -144 6 -258l-39 -37l-41 -37l-51 -37l-41 -51q-86 -90 -121 -164l-39 -38 q-22 -12 -24 -25q-39 -57 -94 -113l-15 -39q-20 -14 -26 -36l-39 -39q-35 -74 -68 -115q-20 -14 -26 -37l-27 -24q-12 -20 -27 -27l-14 -37l-25 -27l-55 -88l-24 -12q-10 -18 -27 -25q-63 -119 -109 -178l-51 -24l-90 14l-39 2q-119 8 -205 -6q-137 56 -110 195zM555 1812 l119 -223l278 -14l125 237l-135 7l-121 -90l-149 90zM1061 154v39q14 12 14 24l2 129l-6 258q25 20 29 37q92 63 131 152q139 72 211 176l41 61q10 -51 10 -102l10 -90l-28 -103l-2 -63l-5 -144l-2 -51v-39l11 -90l18 -282l-41 -76q-150 12 -256 6q-70 31 -127 67z" />
<glyph unicode="&#xea;" horiz-adv-x="1687" d="M29 432l12 -49q-23 -207 12 -334l39 -24l37 -13q121 29 205 -12h102l51 100v115q-40 178 -12 320l-12 38l12 37l-12 27l12 39q-18 117 -12 205l-14 24l14 37q-18 175 24 307q0 92 13 154l-64 76q-72 14 -102 14q-119 -23 -205 0q-66 -70 -88 -154v-63l12 -90v-193 l-12 -24q25 -102 0 -193v-305zM539 854q27 -141 12 -244l51 -51l27 -24l12 -52l25 -37q23 -12 26 -26q41 -68 88 -115l15 -39l24 -24l12 -27l27 -25l12 -38q88 -98 127 -166h90q113 70 230 39q332 0 -12 307l-25 37l-27 24l-24 39l-27 39l-39 27q-106 178 -202 278 q45 61 88 90l14 27q12 15 24 12q129 256 320 395q66 94 76 179l-37 14l-27 12q-166 -25 -293 0h-14h14h-14h-25h25h-25q-18 -12 -38 -12q-57 -86 -115 -117q-71 -123 -178 -190q-78 -131 -193 -205z" />
<glyph unicode="&#xeb;" horiz-adv-x="1959" d="M-2 78l51 -66h37h39q154 49 305 15l66 12l51 63l12 39l25 88q47 92 63 166l15 39l75 139l76 129v37q-34 74 -49 129q-25 14 -27 25q-33 74 -39 102q-61 61 -63 140l-37 51h-90l-27 -51l-24 -25l-64 -205l-12 -63l-12 -37l-27 -39l-25 -51l-26 -39l-12 -25l-13 -39 l-12 -24l-27 -27q-53 -162 -114 -254l-64 -51q-41 -115 -51 -178zM647 1327l15 -27q84 -113 114 -202l76 -142l27 -63l88 -217l39 -37l24 -117q57 -57 78 -100v-39q45 -55 49 -115l117 -229l49 -39q207 29 371 -12q76 55 75 127l-51 78q-94 106 -127 202l-12 39l-12 37 l-27 41l-12 25q-31 88 -78 151q-37 65 -49 117q-37 80 -39 139l-25 51q-20 14 -26 37q-51 70 -64 129l-12 37l-12 27q-59 176 -129 280q-221 -39 -396 0q-69 -76 -51 -178z" />
<glyph unicode="&#xec;" horiz-adv-x="1822" d="M18 84q111 -133 402 -53l49 221q-10 14 -10 39v102v39v90l10 27v90l14 141q188 -152 273 -309l90 -51q252 121 207 375l-105 63q-63 80 -90 129q-23 12 -27 27q-20 12 -24 26l-27 25l-24 27l-66 77q-43 31 -63 76q-117 104 -168 207l-39 14l-105 13q-111 0 -206 26 q-63 -76 -91 -129l25 -207l-12 -77l12 -52l-12 -440l-13 -51l13 -39zM975 1155l12 -168q131 -88 182 -192l13 -351l-13 -38l13 -39v-37q-20 -166 0 -273q201 -115 399 -53l14 105l27 155v90q2 158 -14 285l14 51v39v39v39v39q-16 319 25 504q-41 74 -78 116l-76 13 q-127 -31 -233 14l-15 -41h-51l-12 -25l-27 -24z" />
<glyph unicode="&#xed;" horiz-adv-x="1716" d="M18 158l52 -129l102 -39q121 49 231 26q47 104 64 193q-31 98 -25 166v51v78v63v78v51v142v51v51v39v51q-6 18 0 37l-14 104v39q6 84 27 154l-13 78q-43 51 -90 63q-12 -23 -26 -26q-172 33 -283 -37l-25 -78l13 -64l-13 -77q6 -20 0 -39v-37q8 -100 0 -168l13 -39v-358 l12 -27l-12 -78q24 -190 -13 -319zM545 862q-18 -180 39 -319l280 24l39 -12q102 203 39 373q-169 -9 -295 24l-26 -24zM1044 1094l15 -64l12 -219q-6 -117 12 -193l-12 -36v-129q-16 -227 0 -373q20 -12 25 -27q51 -18 102 -12h51q121 -29 207 -25l51 64l13 78v63 q-27 102 -27 166l14 78q-15 157 13 270v37q-12 18 -13 39v129l-14 39l14 39v39v100q-10 117 13 207q-25 88 -76 141q-150 -51 -295 -12l-90 -51l-15 -39v-309z" />
<glyph unicode="&#xee;" horiz-adv-x="1794" d="M156 561q135 -551 659 -569l78 51q-2 53 -27 104q-6 106 -24 156l-51 66q-285 111 -209 426q35 268 272 338q49 315 -90 362q-76 -33 -143 -27q-66 -39 -129 -38q-440 -361 -336 -869zM944 238l14 -66v-37q33 -76 39 -131q63 0 129 14q123 104 246 129q57 41 105 52 q455 684 -117 1218q-182 70 -311 78l-52 -27l-26 -323q293 -117 299 -402q-37 -285 -273 -389q-20 -67 -53 -116z" />
<glyph unicode="&#xef;" horiz-adv-x="1552" d="M147 758q2 -53 15 -101l22 -75l-12 -25v-37q2 -133 27 -250l-37 -100q23 -47 10 -86l51 -64l37 -12l88 27q147 -20 223 -15q49 80 52 150q-10 72 -39 127q15 77 0 135v37v39v49q20 205 14 311q-23 57 -63 76q-147 -51 -287 -12l-86 -37v-39q-21 -53 -15 -98zM184 1057 q74 4 140 -13q137 27 284 -14q231 31 414 -37v-98l-14 -51l-13 -49l-12 -189q23 -98 12 -174v-174q-10 -115 0 -199l52 -63q150 33 274 -12q72 18 125 51l10 37v37q-27 109 -10 213q-27 111 -27 174v49q0 98 13 162q-25 102 -13 176v37v36q-37 224 0 387v37l-37 74l-61 14 l-51 -14q-115 -2 -211 14h-174q-74 -4 -140 13q-168 -12 -274 12q-129 -27 -235 12q-204 -208 -52 -448z" />
<glyph unicode="&#xf0;" horiz-adv-x="1613" d="M86 594q-37 -309 27 -549l53 -51h39h39l221 12l27 66v65l-15 170l-12 51q-10 102 0 170q-16 72 -12 131v78l12 39l-12 131l12 39l-12 39l12 39l-12 41l12 39q-10 125 27 221l-15 80q-51 70 -129 63q-104 -28 -196 -12l-39 -39l-13 -65l13 -328l-13 -39v-170 q-22 -133 -14 -221zM584 698l12 -24q18 -109 51 -209q664 -23 785 520q-55 516 -770 510q-141 -186 -27 -365q229 29 352 -106q-20 -215 -340 -221q-22 -66 -63 -105z" />
<glyph unicode="&#xf1;" horiz-adv-x="1648" d="M182 528q135 -446 570 -542q51 39 104 92q46 276 -184 356l-54 80q-33 104 -38 184q12 121 38 187q375 252 199 594h-53q-748 -265 -582 -951zM948 330q-25 -195 22.5 -267.5t164.5 -23.5q315 49 460 330v94l-65 51q-108 28 -172 92h-92q-68 -78 -92 -143l-27 -14 q-127 -60 -199 -119zM1067 1505q-276 -319 199 -608h80q109 80 225 80q35 141 12 264l-41 12l-12 41l-27 13l-26 26q-117 90 -172 146q-140 -5 -238 26z" />
<glyph unicode="&#xf2;" horiz-adv-x="1568" d="M45 1200l41 -139l37 -14q154 35 295 14q55 307 -51 434q-129 -55 -256 -27q-86 -133 -66 -268zM457 188l39 -165l36 -25l27 -14q119 51 229 26q76 10 117 51v76l13 51l-13 25v41l-12 25v38v37v168l12 25q-29 150 -12 258l12 37v129v37q37 273 13 448l-39 27 q-150 -25 -281 12l-80 -37l-18 -110q29 -141 32 -250l-12 -37q0 -106 -12 -180q-12 -141 -12 -232l-15 -39v-100q13 -195 -24 -322zM1020 1124l24 -63q123 18 220 -14q168 168 75 409q-74 12 -141 0h-37l-90 27q-27 -35 -51 -51q0 -68 12 -103q-18 -111 -12 -205z" />
<glyph unicode="&#xf3;" horiz-adv-x="1757" d="M-6 1352q49 -55 63 -115l27 -14l10 -37l66 -27l12 -39q68 -78 90 -127q111 -111 141 -229q41 -47 64 -105q221 -55 307 308l-51 116q-125 131 -168 281q-23 31 -37 63l-51 27q-233 -23 -397 51q-70 -69 -76 -153zM262 264q-6 -158 37 -268l51 -14l66 14l51 24l154 -12 q92 22 165 12q84 33 142 39l39 52l12 24l39 117q58 190 153 319v37q41 70 52 117l24 49l13 27q43 66 53 114q66 84 88 168l26 13q57 125 103 180q18 95 12 166l-39 24q-143 -31 -268 13l-64 -52l-51 -36v-66q-31 -33 -39 -63l-24 -39l-27 -52q-25 -70 -63 -127l-27 -63 l-25 -27l-14 -39l-24 -51l-13 -37l-26 -26l-52 -88l-114 -232q-45 -41 -76 -78q-127 -61 -256 -51q-37 -53 -78 -88z" />
<glyph unicode="&#xf4;" horiz-adv-x="1832" d="M352 1157q-319 -872 353 -1073q53 10 83 20q43 193 -10 340q-96 23 -180 66l-33 94q-12 393 213 363q31 45 53 63q23 238 -69 318q-209 -106 -336 -125q-35 -46 -74 -66zM854 455l10 -41v-170q6 -16 0 -33v-86q-18 -123 10 -223q49 -18 117 -31l23 10l20 -10 q96 27 191 10q70 63 75 150v63l-20 53v64l-12 63l-11 64l11 86l-21 170l10 20q-10 16 -10 33q25 127 0 234v53v33v43v30v54v86v53v31v75q9 141 0 234l-33 33q-162 -33 -296 0l-54 -129v-31q10 -16 10 -33v-244l-10 -75v-117v-53q6 -72 -10 -140v-329zM1321 1114 q29 -55 33 -117q215 -55 180 -266q31 -256 -170 -393q-16 -127 -10 -213l63 -53q463 57 447 479q59 477 -267 756l-178 41l-71 -31q-13 -68 -27 -203z" />
<glyph unicode="&#xf5;" horiz-adv-x="1607" d="M88 207q-18 -139 32 -189.5t169 -11.5q213 -49 311 113q74 287 -186 463l-113 -64q-68 -196 -213 -311zM100 1331l64 -98q57 -78 125 -113l24 -39l37 -49l27 -51l86 -150l24 -36l15 -37l24 -37l49 -88q84 -143 113 -225q145 -150 189 -314q55 -39 86 -88q181 55 325 -12 q72 8 125 39l-12 73l-25 76l-51 49l-25 25l-12 27l-24 24l-113 225q-25 40 -37 74l-51 27l-76 137l-24 49q-127 164 -175 301q-162 162 -225 326q-39 4 -51 10q-145 -20 -274 39h-86q-81 -70 -52 -164zM852 1270l25 -37l36 -27v-37l25 -24l12 -37l27 -27l149 -211 q86 115 113 226q344 291 125 387q-195 -49 -377 -13q-86 -116 -135 -200z" />
<glyph unicode="&#xf6;" horiz-adv-x="1662" d="M131 1352l12 -127l15 -115q15 -101 12 -178q-20 -227 12 -383l64 -51q141 37 229 14q78 14 127 61l14 52q2 92 -26 153v103v39q3 117 -12 202q40 178 -13 332l-39 12q-164 -14 -293 27q-12 -15 -24 -12l-78 -90v-39zM209 27h88l25 12h38h166h142q276 35 483 -39 q-8 -133 0 -215q242 -84 343 -31t65 246q63 229 -39 410h-37l-39 -15h-37h-41l-37 15q-195 -10 -317 12l-39 -12h-76l-27 12l-39 -12q-126 18 -215 12l-38 12q-194 -25 -345 12q-198 -196 -24 -419zM883 1276l14 -39l12 -39q-2 -150 13 -254q-45 -221 -13 -383 q236 -74 432 0l15 64l10 63l-10 141v39v140v39v51v37q-4 162 10 256q-25 76 -61 114h-39q-143 -47 -293 -12l-64 -51l-12 -90z" />
<glyph unicode="&#xf7;" horiz-adv-x="1550" d="M139 1133q-80 -369 219 -541q152 -90 295 -78q123 -59 181.5 1t52.5 243q-16 86 -51 155q-170 6 -285 76l-12 39v105l-13 24q41 152 13 297q-25 14 -27 25q-152 -23 -256 26q-223 -120 -117 -372zM950 115l78 -129q164 33 270 26q86 53 115 127q-12 20 -12 39l-27 144 l-10 282v51v52l10 38l-10 52v51v39v51q-18 12 -14 27q12 123 0 204l14 27v102q35 74 25 144l-39 24l-39 13q-168 -18 -310 14q-41 -88 -51 -168v-129l13 -63v-168l-13 -39q18 -139 0 -244q6 -18 0 -39l13 -39v-78l14 -39l-14 -51q-1 -194 -13 -321z" />
<glyph unicode="&#xf8;" horiz-adv-x="2158" d="M16 100q27 -68 66 -116q119 16 182 14l51 12h183l39 13l182 -13q12 16 26 13l39 -13q98 14 168 0q92 12 158 0l39 13q96 0 156 -13h38l39 13l39 -13q98 -6 168 13l39 -13q176 10 287 -26q82 188 39 352l-78 39l-66 -15l-90 15q-98 6 -182 -15l-51 15h-78l-41 12h-39h-219 h-41h-156q-168 -12 -284 12l-54 -12l-38 -12l-52 12q-120 -22 -221 0l-194 -12q-68 -146 -54 -275zM16 659l15 -77l24 -78l39 -27q164 39 326 15q27 27 39 51l12 39q-18 78 -12 143l-13 51v66l13 26q-25 154 -13 260q47 174 25 324l-51 27l-27 14q-156 -39 -284 0 q-53 -55 -78 -119q18 -119 12 -221q-2 -37 0 -51l-12 -51v-236q-1 -88 -15 -156zM745 608l39 -116l39 -15q156 39 273 27q68 -10 104 39l12 53v51l-12 51v54l-12 51q18 94 12 182v39v104q40 187 0 338l-26 13q-182 -33 -338 14q-53 -53 -78 -119v-155l12 -39l-12 -39 q18 -53 12 -105v-182q-6 -84 -25 -129q15 -71 0 -117zM1499 516l39 -24q94 20 168 12q125 25 209 12l51 66l14 65q-45 152 -38 273l12 26q-16 12 -12 27l12 39v39v39q0 98 12 155v78q0 71 -12 129l-39 27q-190 -23 -326 26q-47 -47 -63 -92l-15 -102l-12 -39q18 -70 12 -144 v-38q20 -51 15 -105l-15 -39v-155q-28 -166 -12 -275z" />
<glyph unicode="&#xf9;" horiz-adv-x="2344" d="M115 561l24 -76l39 -14h78q111 37 207 14q66 0 102 37l15 66q-2 106 -27 194v156q0 92 12 154q-4 113 27 192q-8 84 -27 156l-39 26q-195 -10 -321 39q-61 -31 -90 -65q-33 -227 37 -414v-258l-13 -25zM152 45l245 -51l52 12h38q150 -12 246 0h51h54l51 14h39h90h78 q121 -25 207 0h141h39l24 -14q14 18 27 14q115 -18 207 -14l26 -12q23 -127 64 -195l39 -12q100 33 168 27q243 -46 141 282q37 188 0 324l-51 12q-92 -29 -168 -24l-64 12h-53l-51 -12h-63h-54h-141h-39h-39q-225 -31 -387 0q-14 -16 -25 -15h-104h-63h-39l-66 -12h-78h-51 l-39 12h-258l-27 15q-53 12 -114 38q-174 -204 -53 -401zM862 1272q20 -82 15 -142l12 -38q-23 -115 0 -195q-40 -209 0 -375l39 -12h39q174 6 297 -25l51 64q0 37 12 65l-12 37l-12 183v141v131v37v39l12 258l-27 39q-94 -6 -153 0q-92 -12 -195 14l-63 -53zM1599 1247 q25 -74 25 -131v-205q-12 -61 -12 -143q-12 -137 0 -231q63 -39 117 -39q135 47 243 12q27 35 66 51l12 27q2 57 14 129q-37 98 -26 207q16 133 12 219q33 166 14 284l-39 25l-38 14q-152 -18 -273 27q-82 -57 -115 -129v-117z" />
<glyph unicode="&#xfa;" horiz-adv-x="1757" d="M47 1133q92 -111 219 -91l66 -63v-143q20 -51 12 -103l12 -465l-39 -12l27 -41q-8 -98 27 -178l39 -27l63 -12q135 37 246 -14q53 45 90 65l39 141q-16 68 -12 105q-53 102 -54 192l-12 78q39 74 51 129q-12 77 -12 129l12 39q-6 96 15 180v91q-12 102 0 182l-39 168 l-39 -15l-39 15h-39h-39q-49 -10 -90 0h-39l-90 -15h-234l-75 27q-109 -163 -66 -362zM899 371q-66 -223 -21.5 -313.5t201.5 -47.5q510 0 531 477q-6 258 -180 414l-54 12l-24 15h-39h-39q-211 29 -324 63q-168 -182 -39 -438q170 55 273 -66q-80 -156 -234 -90z" />
<glyph unicode="&#xfb;" horiz-adv-x="1957" d="M4 244q29 -92 27 -156l26 -51q291 -70 400 78l12 39q-61 242 -12 450l-13 51l13 27v39l-13 39l13 24v39q-16 141 -13 234l-26 78q82 158 39 309l-78 39h-37q-150 -8 -260 0q-47 -98 -51 -183q29 -78 26 -129l-14 -141q20 -80 14 -129l-14 -39v-246l-12 -90 q-2 -94 -13 -153q2 -68 -14 -129zM508 139l78 -141q532 -6 579 465q-16 213 -114 360h-39l-27 15l-39 12l-102 24l-156 27l-76 -27q-147 -313 154 -387v-90q-82 -63 -180 -63q-70 -97 -78 -195zM1309 190l39 -165l77 -54q121 66 232 39l90 39l27 78q-8 104 -39 192v78v54 v165v78v51q-2 100 12 168q-8 233 27 402q-29 82 -27 153l-39 27q-158 -53 -297 0q-70 -47 -90 -102v-129l12 -54l27 -852q-12 -98 -51 -168z" />
<glyph unicode="&#xfc;" horiz-adv-x="1357" d="M35 154q61 242 12 450l12 51l-12 27v39l12 39l-12 24v39q16 141 12 234l27 78q-82 158 -39 309l78 39h39q150 -8 258 0q47 -98 51 -183q-29 -78 -27 -129l15 -141q-20 -80 -15 -129l15 -39v-246l12 -90q2 -94 12 -153q-2 -68 15 -129q-29 -92 -27 -156l-27 -51 q-291 -70 -399 78zM537 758l77 141q535 6 580 -463q-15 -212 -117 -362h-37l-26 -13l-39 -14l-103 -24l-155 -25l-78 25q-147 313 156 387v90q-84 66 -181 65q-69 97 -77 193z" />
<glyph unicode="&#xfd;" horiz-adv-x="1648" d="M-2 238q45 -51 63 -91q371 -207 496 -146.5t4 390.5q-195 -31 -268 117l-64 12q-94 -100 -204 -141q-27 -86 -27 -141zM49 1122l64 -75q61 -35 90 -91l90 -77l78 26l12 27l39 10q89 83 153 129q96 147 52 283q25 133 -103 141l-26 -27l-90 -12l-25 -24l-39 -27 q-162 -66 -244 -127v-41q-45 -58 -51 -115zM498 725q43 -145 129 -217q180 43 319 0q-86 -143 -244 -193q-58 -154 0 -295l39 -14q66 8 129 27q113 -23 193 0q84 70 166 78q231 397 231 794q-242 567 -653 578q-145 -145 -78 -334q166 -90 232 -231q-193 -51 -347 14 l-26 -27l-13 -26l-26 -13q-10 -88 -51 -141z" />
<glyph unicode="&#xfe;" horiz-adv-x="2408" d="M2 203l12 -86l15 -74l61 -39q141 18 248 -12l61 24l27 101l-27 86v250q68 72 162 49q80 236 12 434l-36 12q-84 -18 -150 0v37v39q9 58 0 98q37 180 0 324q-22 12 -25 24q-102 -4 -186 25q-92 -43 -147 -86l-15 -76l15 -61l-15 -76l15 -459q-3 -31 0 -49v-39 q-16 -176 -15 -260q6 -108 -12 -186zM723 414q219 -449 696 -422l49 98v39q-6 18 0 37q-37 68 -36 149l-37 37q-285 39 -248 348q0 303 272 361q55 111 62 199q-52 83 -62 159q-119 -10 -198 0q-12 -14 -27 -10q-18 -12 -37 -12q-104 -80 -211 -113q-334 -405 -223 -870z M1554 340q-35 -174 15 -324l98 -24q596 209 522 672q12 666 -596 782q-246 -366 160 -510l14 -62q43 -117 50 -198q-23 -250 -238 -299z" />
<glyph unicode="&#xff;" horiz-adv-x="1650" d="M51 55q18 74 51 142q57 53 78 90q174 121 232 295q-72 47 -156 51q-190 267 -141 553l26 26q76 143 154 220l156 36l36 15l39 -15l27 15l258 12q195 -164 12 -373q-172 -6 -270 -39q12 -242 244 -192q12 -29 39 -39l12 -90v-39q37 -90 26 -193q-47 -72 -90 -114 q-74 -80 -102 -156q-125 -104 -180 -231q-96 -37 -207 -13q-150 -74 -244 39zM977 158q23 86 27 141l12 51q-14 104 -12 180v39l12 166l-12 27q12 86 0 153v105v39v166q-29 111 -27 180q29 51 39 78l39 12q170 -18 295 0q59 -76 77 -129q-20 -115 -14 -180v-90 q12 -150 0 -256l14 -52q4 -133 0 -219l13 -26q-18 -89 -13 -154q23 -219 0 -360q-78 -31 -116 -39q-141 45 -256 39q-53 12 -66 63z" />
<glyph unicode="&#x152;" horiz-adv-x="952" />
<glyph unicode="&#x153;" horiz-adv-x="755" />
<glyph unicode="&#x178;" horiz-adv-x="524" />
<glyph unicode="&#x2c6;" horiz-adv-x="358" />
<glyph unicode="&#x2dc;" horiz-adv-x="481" />
<glyph unicode="&#x2000;" horiz-adv-x="907" />
<glyph unicode="&#x2001;" horiz-adv-x="1816" />
<glyph unicode="&#x2002;" horiz-adv-x="907" />
<glyph unicode="&#x2003;" horiz-adv-x="1816" />
<glyph unicode="&#x2004;" horiz-adv-x="604" />
<glyph unicode="&#x2005;" horiz-adv-x="452" />
<glyph unicode="&#x2006;" horiz-adv-x="301" />
<glyph unicode="&#x2007;" horiz-adv-x="301" />
<glyph unicode="&#x2008;" horiz-adv-x="225" />
<glyph unicode="&#x2009;" horiz-adv-x="362" />
<glyph unicode="&#x200a;" horiz-adv-x="100" />
<glyph unicode="&#x2010;" horiz-adv-x="937" d="M45 588l61 -99h37l25 15h49l84 10l270 12l37 -37l74 15q96 166 10 330l-59 12q-18 -12 -37 -12h-37q-113 -20 -194 0q-139 -35 -246 -15q-99 -100 -74 -231z" />
<glyph unicode="&#x2011;" horiz-adv-x="937" d="M45 588l61 -99h37l25 15h49l84 10l270 12l37 -37l74 15q96 166 10 330l-59 12q-18 -12 -37 -12h-37q-113 -20 -194 0q-139 -35 -246 -15q-99 -100 -74 -231z" />
<glyph unicode="&#x2012;" horiz-adv-x="937" d="M45 588l61 -99h37l25 15h49l84 10l270 12l37 -37l74 15q96 166 10 330l-59 12q-18 -12 -37 -12h-37q-113 -20 -194 0q-139 -35 -246 -15q-99 -100 -74 -231z" />
<glyph unicode="&#x2013;" horiz-adv-x="681" />
<glyph unicode="&#x2014;" horiz-adv-x="892" />
<glyph unicode="&#x2018;" d="M43 1255l25 -36l135 -306q266 12 243 527l-86 37q-126 -31 -221 12q-133 -89 -96 -234z" />
<glyph unicode="&#x2019;" d="M43 1255l25 -36l135 -306q266 12 243 527l-86 37q-126 -31 -221 12q-133 -89 -96 -234z" />
<glyph unicode="&#x201a;" horiz-adv-x="233" />
<glyph unicode="&#x201c;" horiz-adv-x="1146" d="M43 1255l25 -36l135 -306q266 12 243 527l-86 37q-126 -31 -221 12q-133 -89 -96 -234zM573 1245l25 -37l133 -305q268 12 246 527l-86 36q-126 -31 -221 13q-134 -89 -97 -234z" />
<glyph unicode="&#x201d;" horiz-adv-x="1146" d="M43 1255l25 -36l135 -306q266 12 243 527l-86 37q-126 -31 -221 12q-133 -89 -96 -234zM573 1245l25 -37l133 -305q268 12 246 527l-86 36q-126 -31 -221 13q-134 -89 -97 -234z" />
<glyph unicode="&#x201e;" horiz-adv-x="401" />
<glyph unicode="&#x2022;" horiz-adv-x="385" />
<glyph unicode="&#x2026;" horiz-adv-x="790" />
<glyph unicode="&#x202f;" horiz-adv-x="362" />
<glyph unicode="&#x2039;" horiz-adv-x="319" />
<glyph unicode="&#x203a;" horiz-adv-x="319" />
<glyph unicode="&#x205f;" horiz-adv-x="452" />
<glyph unicode="&#x2122;" horiz-adv-x="679" />
<glyph unicode="&#xe000;" horiz-adv-x="1495" d="M0 1495h1495v-1495h-1495v1495z" />
<glyph unicode="&#xfb01;" horiz-adv-x="2095" d="M1488 174l13 -76q25 -59 61 -98h39l39 -14q69 31 142 31q34 0 71 -7q29 102 61 164v88l-12 64l-12 88l12 24q-12 18 -12 37v152q-12 41 -12 75l12 50v51v137v49v51v52v36v52q0 63 -12 100q6 59 6 109.5t-6 91.5l-25 12q-62 -7 -119 -7q-95 0 -172 19l-61 -63v-37 q0 -82 -13 -139q6 -32 6.5 -63.5t-6.5 -61.5l13 -64l-13 -49v-352l13 -37v-313q-1 -93 -13 -152zM18 125l25 -92q23 -12 27 -27l39 -12l92 12l233 -12l27 51l39 66v92l-27 78l12 77v52v65v78q-8 48 -7.5 90.5t7.5 79.5l-12 39v51l-12 51l12 66l-12 51v104v39v39v105 q11 61 11 113.5t-11 95.5q-31 6 -39 24q-83 -29 -164.5 -29t-161.5 29q-49 -72 -65 -117l12 -442q0 -61 -12 -102q15 -125 15 -222q0 -41 -3 -77v-92l-12 -39l12 -52v-92zM578 1112l63 -51h80q20 3 39 3t39 -3l24 12h39h53q65 0 105 12q61 -2 102 -12l92 12q39 70 40 145 q0 5 -1 11q20 70 21 121q0 143 -161 143q-25 0 -54 -4q-23 -12 -39 -12h-105q-75 -5 -139.5 -5t-120.5 5l-77 -39v-338zM590 553l78 -27q74 20 138.5 20t121.5 -20q49 110 48 219q0 94 -36 185l-78 12q-23 -12 -39 -12h-19q-125 0 -214 -39v-78l12 -27q-18 -83 -18 -155 q1 -41 6 -78z" />
<glyph unicode="&#xfb02;" horiz-adv-x="2951" d="M1488 295q0 -147 39 -250l66 -39l90 14q72 0 131 -26l66 12q53 98 63 197q-14 100 -39 170l15 39q-8 54 -9 102q0 76 21 143l-12 27v51l12 29l-12 24q-1 13 -1 26q0 64 13 118q-15 49 -15 94q0 19 3 37v102l12 262q-74 61 -144 78l-26 -26q-27 2 -54 2q-99 0 -180 -29 l-14 -63l-12 -78l12 -68v-90l-12 -39q8 -37 7.5 -73t-7.5 -70q12 -43 12 -78v-182l14 -39l-14 -39l14 -39l-14 -27v-248zM2035 33q42 -39 84 -39h6l105 12h51h53h54h38l39 14h39q20 -1 39 0q94 0 168 13q50 135 50 227q0 132 -101 176q-18 -12 -39 -12q-58 -11 -113.5 -11 t-107.5 11h-51q-69 -5 -125 -5t-99 5q-120 -105 -119 -245q0 -69 29 -146zM18 125l25 -92q23 -12 27 -27l39 -12l92 12l233 -12l27 51l39 66v92l-27 78l12 77v52v65v78q-8 48 -7.5 90.5t7.5 79.5l-12 39v51l-12 51l12 66l-12 51v104v39v39v105q11 61 11 113.5t-11 95.5 q-31 6 -39 24q-83 -29 -164.5 -29t-161.5 29q-49 -72 -65 -117l12 -442q0 -61 -12 -102q15 -125 15 -222q0 -41 -3 -77v-92l-12 -39l12 -52v-92zM578 1112l63 -51h80q20 3 39 3t39 -3l24 12h39h53q65 0 105 12q61 -2 102 -12l92 12q39 70 40 145q0 5 -1 11q20 70 21 121 q0 143 -161 143q-25 0 -54 -4q-23 -12 -39 -12h-105q-75 -5 -139.5 -5t-120.5 5l-77 -39v-338zM590 553l78 -27q74 20 138.5 20t121.5 -20q49 110 48 219q0 94 -36 185l-78 12q-23 -12 -39 -12h-19q-125 0 -214 -39v-78l12 -27q-18 -83 -18 -155q1 -41 6 -78z" />
<glyph unicode="&#xfb03;" horiz-adv-x="3565" d="M2959 174l13 -76q25 -59 61 -98h39l39 -14q69 31 142 31q34 0 71 -7q29 102 61 164v88l-12 64l-12 88l12 24q-12 18 -12 37v152q-12 41 -12 75l12 50v51v137v49v51v52v36v52q0 63 -12 100q6 59 6 109.5t-6 91.5l-25 12q-62 -7 -119 -7q-95 0 -172 19l-61 -63v-37 q0 -82 -13 -139q6 -32 6.5 -63.5t-6.5 -61.5l13 -64l-13 -49v-352l13 -37v-313q-1 -93 -13 -152zM1488 125l25 -92q23 -12 27 -27l39 -12l92 12l233 -12l27 51l39 66v92l-27 78l12 77v52v65v78q-8 48 -7.5 90.5t7.5 79.5l-12 39v51l-12 51l12 66l-12 51v104v39v39v105 q11 61 11 113.5t-11 95.5q-31 6 -39 24q-83 -29 -164.5 -29t-161.5 29q-49 -72 -65 -117l12 -442q0 -61 -12 -102q15 -125 15 -222q0 -41 -3 -77v-92l-12 -39l12 -52v-92zM2048 1112l63 -51h80q20 3 39 3t39 -3l24 12h39h53q65 0 105 12q61 -2 102 -12l92 12q39 70 40 145 q0 5 -1 11q20 70 21 121q0 143 -161 143q-25 0 -54 -4q-23 -12 -39 -12h-105q-75 -5 -139.5 -5t-120.5 5l-77 -39v-338zM2060 553l78 -27q74 20 138.5 20t121.5 -20q49 110 48 219q0 94 -36 185l-78 12q-23 -12 -39 -12h-19q-125 0 -214 -39v-78l12 -27q-18 -83 -18 -155 q1 -41 6 -78zM18 125l25 -92q23 -12 27 -27l39 -12l92 12l233 -12l27 51l39 66v92l-27 78l12 77v52v65v78q-8 48 -7.5 90.5t7.5 79.5l-12 39v51l-12 51l12 66l-12 51v104v39v39v105q11 61 11 113.5t-11 95.5q-31 6 -39 24q-83 -29 -164.5 -29t-161.5 29q-49 -72 -65 -117 l12 -442q0 -61 -12 -102q15 -125 15 -222q0 -41 -3 -77v-92l-12 -39l12 -52v-92zM578 1112l63 -51h80q20 3 39 3t39 -3l24 12h39h53q65 0 105 12q61 -2 102 -12l92 12q39 70 40 145q0 5 -1 11q20 70 21 121q0 143 -161 143q-25 0 -54 -4q-23 -12 -39 -12h-105 q-75 -5 -139.5 -5t-120.5 5l-77 -39v-338zM590 553l78 -27q74 20 138.5 20t121.5 -20q49 110 48 219q0 94 -36 185l-78 12q-23 -12 -39 -12h-19q-125 0 -214 -39v-78l12 -27q-18 -83 -18 -155q1 -41 6 -78z" />
<glyph unicode="&#xfb04;" horiz-adv-x="4421" d="M2959 295q0 -147 39 -250l66 -39l90 14q72 0 131 -26l66 12q53 98 63 197q-14 100 -39 170l15 39q-8 54 -9 102q0 76 21 143l-12 27v51l12 29l-12 24q-1 13 -1 26q0 64 13 118q-15 49 -15 94q0 19 3 37v102l12 262q-74 61 -144 78l-26 -26q-27 2 -54 2q-99 0 -180 -29 l-14 -63l-12 -78l12 -68v-90l-12 -39q8 -37 7.5 -73t-7.5 -70q12 -43 12 -78v-182l14 -39l-14 -39l14 -39l-14 -27v-248zM3506 33q42 -39 84 -39h6l105 12h51h53h54h38l39 14h39q20 -1 39 0q94 0 168 13q50 135 50 227q0 132 -101 176q-18 -12 -39 -12q-58 -11 -113.5 -11 t-107.5 11h-51q-69 -5 -125 -5t-99 5q-120 -105 -119 -245q0 -69 29 -146zM1488 125l25 -92q23 -12 27 -27l39 -12l92 12l233 -12l27 51l39 66v92l-27 78l12 77v52v65v78q-8 48 -7.5 90.5t7.5 79.5l-12 39v51l-12 51l12 66l-12 51v104v39v39v105q11 61 11 113.5t-11 95.5 q-31 6 -39 24q-83 -29 -164.5 -29t-161.5 29q-49 -72 -65 -117l12 -442q0 -61 -12 -102q15 -125 15 -222q0 -41 -3 -77v-92l-12 -39l12 -52v-92zM2048 1112l63 -51h80q20 3 39 3t39 -3l24 12h39h53q65 0 105 12q61 -2 102 -12l92 12q39 70 40 145q0 5 -1 11q20 70 21 121 q0 143 -161 143q-25 0 -54 -4q-23 -12 -39 -12h-105q-75 -5 -139.5 -5t-120.5 5l-77 -39v-338zM2060 553l78 -27q74 20 138.5 20t121.5 -20q49 110 48 219q0 94 -36 185l-78 12q-23 -12 -39 -12h-19q-125 0 -214 -39v-78l12 -27q-18 -83 -18 -155q1 -41 6 -78zM18 125 l25 -92q23 -12 27 -27l39 -12l92 12l233 -12l27 51l39 66v92l-27 78l12 77v52v65v78q-8 48 -7.5 90.5t7.5 79.5l-12 39v51l-12 51l12 66l-12 51v104v39v39v105q11 61 11 113.5t-11 95.5q-31 6 -39 24q-83 -29 -164.5 -29t-161.5 29q-49 -72 -65 -117l12 -442q0 -61 -12 -102 q15 -125 15 -222q0 -41 -3 -77v-92l-12 -39l12 -52v-92zM578 1112l63 -51h80q20 3 39 3t39 -3l24 12h39h53q65 0 105 12q61 -2 102 -12l92 12q39 70 40 145q0 5 -1 11q20 70 21 121q0 143 -161 143q-25 0 -54 -4q-23 -12 -39 -12h-105q-75 -5 -139.5 -5t-120.5 5l-77 -39 v-338zM590 553l78 -27q74 20 138.5 20t121.5 -20q49 110 48 219q0 94 -36 185l-78 12q-23 -12 -39 -12h-19q-125 0 -214 -39v-78l12 -27q-18 -83 -18 -155q1 -41 6 -78z" />
</font>
</defs>
</svg>
